Stargate Atlantis

Stargate Atlantis S05E19 20 PreAir[ org]

  • Download 5x Faster
  • Download torrent
  • Direct Download
  • Rate this torrent +  |  -
Stargate Atlantis S05E19 20 PreAir[ org]

Anonymous and Free Direct Download 300GB+


Torrent info

Name:Stargate Atlantis S05E19 20 PreAir[ org]

Total Size: 719.93 MB

Magnet: Magnet Link

Seeds: 0

Leechers: 0

Stream: Watch Online @ Movie4u

Last Updated: 2015-09-30 09:08:15 (Update Now)

Torrent added: 2009-08-25 21:38:00



VPN For Torrents

Torrent Files List


Stargate.Atlantis.S05E19.Vegas.PreAir.avi (Size: 719.93 MB) (Files: 4)

 Stargate.Atlantis.S05E19.Vegas.PreAir.avi

370.09 MB

 Stargate.Atlantis.S05E19.Vegas.PreAir.nfo

1.13 KB

 Stargate.Atlantis.S05E20.Enemy.at.the.Gate.PreAir.avi

349.84 MB

 Stargate.Atlantis.S05E20.Enemy.at.the.Gate.PreAir.nfo

1.14 KB
 

tracker

leech seeds
 

Torrent description

~ Seedmore ~

Hi m8! Were you thinking about join a private tracker, well what are you waiting for!! we are a Italian Mob theme website with a new twist ;)
we focus on fast uploads, new content, and above all: user security ;)
are you also tired of malware and Hit & Runners,:(
Are you an experienced uploader Huh, See forums for how to apply.
well what are you waiting for doors will not be open for long so start typing to join: http://tinyurl.com/seedmore NOW!!!!!!

I want to see you at Seedmore.org :)


General

Complete name : Stargate.Atlantis.S05E19.Vegas.PreAir.avi

Format : AVI

Format/Info : Audio Video Interleave

File size : 370 MiB

Duration : 42mn 44s

Overall bit rate : 1 211 Kbps

Writing application : VirtualDubMod 1.5.4.1 (build 2178/release)

Writing library : VirtualDubMod build 2178/release



Video

Format : MPEG-4 Visual

Format settings, BVOP : No

Format settings, QPel : No

Format settings, GMC : No warppoints

Format settings, Matrix : Default

Codec ID : XVID

Codec ID/Hint : XviD

Duration : 42mn 44s

Bit rate : 979 Kbps

Width : 624 pixels

Height : 368 pixels

Display aspect ratio : 1.696

Frame rate : 23.976 fps

Resolution : 24 bits

Colorimetry : 4:2:0

Scan type : Progressive

Bits/(Pixel*Frame) : 0.178

Stream size : 299 MiB (81%)

Writing library : XviD 1.1.0 Beta2 (UTC 2005-04-04)



Audio

Format : AC-3

Format/Info : Audio Coding 3

Codec ID : 2000

Duration : 42mn 44s

Bit rate mode : Constant

Bit rate : 224 Kbps

Channel(s) : 2 channels

Channel positions : L R

Sampling rate : 48.0 KHz

Stream size : 68.5 MiB (19%)

Alignment : Split accross interleaves



Complete name : Stargate.Atlantis.S05E20.Enemy.at.the.Gate.PreAir.avi

Format : AVI

Format/Info : Audio Video Interleave

File size : 350 MiB

Duration : 42mn 31s

Overall bit rate : 1 150 Kbps

Writing application : VirtualDubMod 1.5.4.1 (build 2178/release)

Writing library : VirtualDubMod build 2178/release



Video

Format : MPEG-4 Visual

Format settings, BVOP : No

Format settings, QPel : No

Format settings, GMC : No warppoints

Format settings, Matrix : Default

Codec ID : XVID

Codec ID/Hint : XviD

Duration : 42mn 31s

Bit rate : 919 Kbps

Width : 624 pixels

Height : 368 pixels

Display aspect ratio : 1.696

Frame rate : 23.976 fps

Resolution : 24 bits

Colorimetry : 4:2:0

Scan type : Progressive

Bits/(Pixel*Frame) : 0.167

Stream size : 280 MiB (80%)

Writing library : XviD 1.1.0 Beta2 (UTC 2005-04-04)



Audio

Format : AC-3

Format/Info : Audio Coding 3

Codec ID : 2000

Duration : 42mn 31s

Bit rate mode : Constant

Bit rate : 224 Kbps

Channel(s) : 2 channels

Channel positions : L R

Sampling rate : 48.0 KHz

Stream size : 68.1 MiB (19%)

Alignment : Split accross interleaves

Interleave, duration : 83 ms (2.00 video frames)

Interleave, preload duration : 500 ms

related torrents

Torrent name

health leech seeds Size
 


comments (0)

Main Menu