Thriller

Ginger Snaps 2 Unleashed 1337x By {Noir}

  • Download 5x Faster
  • Download torrent
  • Direct Download
  • Rate this torrent +  |  -
Ginger Snaps 2 Unleashed 1337x By {Noir}

Anonymous and Direct Download 300GB+ free


Torrent info

Name:Ginger Snaps 2 Unleashed 1337x By {Noir}

Total Size: 717.82 MB

Magnet: Magnet Link

Seeds: 0

Leechers: 1

Stream: Watch Online @ Movie4u

Last Updated: 2017-04-15 07:27:44 (Update Now)

Torrent added: 2008-08-01 09:35:54




Torrent Files List


1337x.Org.txt (Size: 717.82 MB) (Files: 5)

 1337x.Org.txt

0.03 KB

 Ginger Snaps 2 Unleashed [1337x] By {Noir}.avi

711.96 MB

 Noir.nfo

4.83 KB

 Subs

  Ginger Snaps 2 Unleashed [1337x] By {Noir}.idx

74.71 KB

  Ginger Snaps 2 Unleashed [1337x] By {Noir}.sub

5.79 MB
 

tracker

leech seeds
 

Torrent description

screensehots

Ginger Snaps 2 Unleashed 1337x By {Noir} preview 0

Ginger Snaps 2 Unleashed 1337x By {Noir} preview 1

Ginger Snaps 2 Unleashed 1337x By {Noir} preview 2

Ginger Snaps 2 Unleashed 1337x By {Noir} preview 3

[code] _____________________________________________________________________________
??????
??????? ????
???????? ??????
????????? ???????????
???????? ???????????? ?????????????
????????? ???????????????????????????
?????????? ???????????????????????????
??????????? ?????????????????????????????
?????????????????????????????????????????
?????????????????????????????????????????
?????????????????????????????????????????
?????????????????????????????????????????
?????????????????????????????????????????
???????? ?????????????????????????????????
????????? ????????????????????????????
????????? ????????????????? ????????
????????? ???????????????? ????????
????????? ?????????????? ????????
????????? ?????
_____________________________________________________________________________



*******************************************************************************
Ginger Snaps 2 Unleashed (2008)
*******************************************************************************

-------------------------------------------------------------------------------
General Information
-------------------------------------------------------------------------------
Type : Movie
Format : AVI
Format/Info : Audio Video Interleave
File size : 721 MiB
Duration : 1h 38mn
Subtitles : English,Spanish
Source : Dvd NTSC
Genre : Horror | Thriller
IMDB Link : http://www.imdb.com/title/tt0353489/
Rating : 6.6/10

Video
Format : MPEG-4 Visual
Format profile : Streaming [email protected]
Format settings, BVOP : Yes
Format settings, QPel : No
Format settings, GMC : No warppoints
Format settings, Matrix : Default
Muxing mode : Packet Bitstream
Codec ID : XVID
Codec ID/Hint : XviD
Duration : 1h 30mn
Bit rate : 963 Kbps
Width : 608 pixels
Height : 336 pixels
Display aspect ratio : 16/9
Frame rate : 23.976 fps
Resolution : 8 bits
Colorimetry : 4:2:0
Scan type : Progressive
Bits/(Pixel*Frame) : 0.197
Stream size : 623 MiB (88%)

Audio
Format : MPEG Audio
Format version : Version 1
Format profile : Layer 3
Codec ID : 55
Codec ID/Hint : MP3
Duration : 1h 30mn
Bit rate mode : Constant
Bit rate : 128 Kbps
Minimum bit rate : 128 Kbps
Channel(s) : 2 channels
Sampling rate : 48.0 KHz
Resolution : 16 bits
Stream size : 82.8 MiB (12%)
Alignment : Aligned on interleaves
Interleave, duration : 42 ms (1.00 video frame)
Interleave, preload duration : 504 ms
Writing library : LAME3.97
Encoding settings : CBR
-------------------------------------------------------------------------------
Description
-------------------------------------------------------------------------------
Brigitte's on the run from Bailey Downs, and she tries to prevent what
happened to her sister, Ginger, from happening to her by shooting up with
monkshood. Eventually she collapses and the police that find assume the
monkshood is an illegal drug, and she is sent to rehab. She is deprived
of the only thing that will stop her from turning into a beast and killing
everyone and everything in her way. She meets a girl who is quiet and not
well-liked, and much like herself, by the name of Ghost that helps her
deal with her new problem and to escape the werewolf curse
-------------------------------------------------------------------------------
Post Information
-------------------------------------------------------------------------------
Posted by............: Noir
Posted on............: 7/31/2008
[/code]

Ginger Snaps 2 Unleashed 1337x By {Noir} preview 4

Ginger Snaps 2 Unleashed 1337x By {Noir} preview 5

Ginger Snaps 2 Unleashed 1337x By {Noir} preview 6

related torrents

Torrent name

health leech seeds Size
 


comments (0)

Main Menu