Stargate Atlantis

SGA S5E20

  • Download 5x Faster
  • Download torrent
  • Direct Download
  • Rate this torrent +  |  -
SGA S5E20

Download FREE And Anonymously


Torrent info

Name:SGA S5E20

Total Size: 353.36 MB

Magnet: Magnet Link

Seeds: 0

Leechers: 0

Stream: Watch Full Movie @ Movie4u

Last Updated: 2015-09-30 09:17:18 (Update Now)

Torrent added: 2009-08-25 20:56:52

Alternatives:SGA S5E20 Torrents



VPN For Torrents

Torrent Files List


SGA-S5E20.nfo (Size: 353.36 MB) (Files: 27)

 SGA-S5E20.nfo

7.98 KB

 SGA-S5E20.r00

14.31 MB

 SGA-S5E20.r01

14.31 MB

 SGA-S5E20.r02

14.31 MB

 SGA-S5E20.r03

14.31 MB

 SGA-S5E20.r04

14.31 MB

 SGA-S5E20.r05

14.31 MB

 SGA-S5E20.r06

14.31 MB

 SGA-S5E20.r07

14.31 MB

 SGA-S5E20.r08

14.31 MB

 SGA-S5E20.r09

14.31 MB

 SGA-S5E20.r10

14.31 MB

 SGA-S5E20.r11

14.31 MB

 SGA-S5E20.r12

14.31 MB

 SGA-S5E20.r13

14.31 MB

 SGA-S5E20.r14

14.31 MB

 SGA-S5E20.r15

14.31 MB

 SGA-S5E20.r16

14.31 MB

 SGA-S5E20.r17

14.31 MB

 SGA-S5E20.r18

14.31 MB

 SGA-S5E20.r19

14.31 MB

 SGA-S5E20.r20

14.31 MB

 SGA-S5E20.r21

14.31 MB

 SGA-S5E20.r22

14.31 MB

 SGA-S5E20.r23

10.03 MB

 SGA-S5E20.rar

14.31 MB

 SGA-S5E20.sfv

1.99 KB
 

tracker

leech seeds
 

Torrent description

Language: English

General
Complete name : SGA-S5E20SGA-S5E20.avi
Format : AVI
Format/Info : Audio Video Interleave
File size : 350 MiB
Duration : 42mn 31s
Overall bit rate : 1 150 Kbps
Writing application : VirtualDubMod 1.5.4.1 (build 2178/release)
Writing library : VirtualDubMod build 2178/release

Video
Format : MPEG-4 Visual
Format settings, BVOP : No
Format settings, QPel : No
Format settings, GMC : No warppoints
Format settings, Matrix : Default
Codec ID : XVID
Codec ID/Hint : XviD
Duration : 42mn 31s
Bit rate : 919 Kbps
Width : 624 pixels
Height : 368 pixels
Display aspect ratio : 1.696
Frame rate : 23.976 fps
Resolution : 24 bits
Colorimetry : 4:2:0
Scan type : Progressive
Bits/(Pixel*Frame) : 0.167
Stream size : 280 MiB (80%)
Writing library : XviD 1.1.0 Beta2 (UTC 2005-04-04)

Audio
Format : AC-3
Format/Info : Audio Coding 3
Codec ID : 2000
Duration : 42mn 31s
Bit rate mode : Constant
Bit rate : 224 Kbps
Channel(s) : 2 channels
Channel positions : L R
Sampling rate : 48.0 KHz
Stream size : 68.1 MiB (19%)
Alignment : Split accross interleaves
Interleave, duration : 83 ms (2.00 video frames)
Interleave, preload duration : 500 ms

Episode Info

Todd informs Atlantis that a rogue Wraith has acquired several Z.P.M.'s to power a formidable new Hive ship. When the Daedalus engages it in battle but is unable to defeat it, the team gets a message indicating it is headed to Earth.

related torrents

Torrent name

health leech seeds Size

SGA S5E20

0 0 353.36 MB 0

Sga s5e20

0 0 353.00 MB 0
 


comments (0)

Main Menu

 

script data-cfasync="false" src="//d2ghscazvn398x.cloudfront.net/?cshgd=690275">