Stargate Atlantis

SGA S5E19

  • Download 5x Faster
  • Download torrent
  • Direct Download
  • Rate this torrent +  |  -
SGA S5E19

Free and Direct Download with Usenet.nl 300GB+ free


Torrent info

Name:SGA S5E19

Total Size: 373.82 MB

Magnet: Magnet Link

Seeds: 0

Leechers: 0

Stream: Watch Online @ Movie4u

Last Updated: 2015-10-01 04:12:19 (Update Now)

Torrent added: 2009-08-25 20:56:52

Alternatives:SGA S5E19 Torrents





Torrent Files List


SGA-S5E19.nfo (Size: 373.82 MB) (Files: 29)

 SGA-S5E19.nfo

7.98 KB

 SGA-S5E19.r00

14.31 MB

 SGA-S5E19.r01

14.31 MB

 SGA-S5E19.r02

14.31 MB

 SGA-S5E19.r03

14.31 MB

 SGA-S5E19.r04

14.31 MB

 SGA-S5E19.r05

14.31 MB

 SGA-S5E19.r06

14.31 MB

 SGA-S5E19.r07

14.31 MB

 SGA-S5E19.r08

14.31 MB

 SGA-S5E19.r09

14.31 MB

 SGA-S5E19.r10

14.31 MB

 SGA-S5E19.r11

14.31 MB

 SGA-S5E19.r12

14.31 MB

 SGA-S5E19.r13

14.31 MB

 SGA-S5E19.r14

14.31 MB

 SGA-S5E19.r15

14.31 MB

 SGA-S5E19.r16

14.31 MB

 SGA-S5E19.r17

14.31 MB

 SGA-S5E19.r18

14.31 MB

 SGA-S5E19.r19

14.31 MB

 SGA-S5E19.r20

14.31 MB

 SGA-S5E19.r21

14.31 MB

 SGA-S5E19.r22

14.31 MB

 SGA-S5E19.r23

14.31 MB

 SGA-S5E19.r24

14.31 MB

 SGA-S5E19.r25

1.88 MB

 SGA-S5E19.rar

14.31 MB

 SGA-S5E19.sfv

2.14 KB
 

tracker

leech seeds
 

Torrent description



General
Complete name : SGA-S5E19SGA-S5E19.avi
Format : AVI
Format/Info : Audio Video Interleave
File size : 370 MiB
Duration : 42mn 44s
Overall bit rate : 1 211 Kbps
Writing application : VirtualDubMod 1.5.4.1 (build 2178/release)
Writing library : VirtualDubMod build 2178/release

Video
Format : MPEG-4 Visual
Format settings, BVOP : No
Format settings, QPel : No
Format settings, GMC : No warppoints
Format settings, Matrix : Default
Codec ID : XVID
Codec ID/Hint : XviD
Duration : 42mn 44s
Bit rate : 979 Kbps
Width : 624 pixels
Height : 368 pixels
Display aspect ratio : 1.696
Frame rate : 23.976 fps
Resolution : 24 bits
Colorimetry : 4:2:0
Scan type : Progressive
Bits/(Pixel*Frame) : 0.178
Stream size : 299 MiB (81%)
Writing library : XviD 1.1.0 Beta2 (UTC 2005-04-04)

Audio
Format : AC-3
Format/Info : Audio Coding 3
Codec ID : 2000
Duration : 42mn 44s
Bit rate mode : Constant
Bit rate : 224 Kbps
Channel(s) : 2 channels
Channel positions : L R
Sampling rate : 48.0 KHz
Stream size : 68.5 MiB (19%)
Alignment : Split accross interleaves
Interleave, duration : 83 ms (2.00 video frames)
Interleave, preload duration : 500 ms

Episode Info

Detective John Sheppard investigates a series of unusual murders in Las Vegas.

related torrents

Torrent name

health leech seeds Size

SGA S5E19

0 0 373.82 MB 0

Sga s5e19

0 0 373.00 MB 0
 

comments (0)

Main Menu