Action

Transformers 2 Revenge Of The Fallen [TS] [Ipod, PSP, Zune Formatted]

  • Download 5x Faster
  • Download torrent
  • Direct Download
  • Rate this torrent +  |  -
Transformers 2 Revenge Of The Fallen [TS] [Ipod, PSP, Zune Formatted]

Free and Direct Download with Usenet 300GB+ free


Torrent info

Name:Transformers 2 Revenge Of The Fallen [TS] [Ipod, PSP, Zune Formatted]

Total Size: 909.85 MB

Magnet: Magnet Link

Seeds: 16

Leechers: 2

Stream: Watch Online @ Movie4u

Last Updated: 0000-00-00 00:00:00 (Update Now)

Torrent added: 2009-08-25 20:34:00




Torrent Files List


Transformers 2 Revenge Of The Fallen [TS].mp4 (Size: 909.85 MB) (Files: 3)

 Transformers 2 Revenge Of The Fallen [TS].mp4

909.85 MB

 Another great torrent!.txt

0.12 KB

 Torrent downloaded from Demonoid.com.txt

0.05 KB
 

Announce URL: http://tracker.thepiratebay.org:80/announce

Torrent description



*Tested*
Tested on Ipod Touch 2nd gen 32gb and Ipod Classic 80Gb

Converting any Movies, TV Shows, Music Videos ect please post what you want in the comments.

--------------------------------------------------------------------------------
Format : MPEG-4
Format profile : Base Media
Codec ID : isom
File size : 910 MiB
Duration : 2h 21mn
Overall bit rate : 900 Kbps
Movie name : Transformers 2 Revenge Of The Fallen TS XVID MAXSPEED www.torentz.3xforum.ro
Encoded date : UTC 2009-08-24 05:43:04
Tagged date : UTC 2009-08-24 05:43:04
Writing application : Lavf52.31.0

Video
ID : 1
Format : AVC
Format/Info : Advanced Video Codec
Format profile : [email protected]
Format settings, CABAC : No
Format settings, ReFrames : 3 frames
Codec ID : avc1
Codec ID/Info : Advanced Video Coding
Duration : 2h 21mn
Bit rate mode : Variable
Bit rate : 767 Kbps
Width : 480 pixels
Height : 206 pixels
Display aspect ratio : 2.35:1
Frame rate mode : Constant
Frame rate : 25.000 fps
Resolution : 24 bits
Colorimetry : 4:2:0
Scan type : Progressive
Bits/(Pixel*Frame) : 0.310
Stream size : 776 MiB (85%)
Encoded date : UTC 2009-08-24 05:43:04
Tagged date : UTC 2009-08-24 05:43:04

Audio
ID : 2
Format : AAC
Format/Info : Advanced Audio Codec
Format version : Version 4
Format profile : LC
Format settings, SBR : No
Codec ID : 40
Duration : 2h 21mn
Bit rate mode : Variable
Bit rate : 128 Kbps
Channel(s) : 2 channels
Channel positions : L R
Sampling rate : 48.0 KHz
Resolution : 16 bits
Stream size : 129 MiB (14%)
Encoded date : UTC 2009-08-24 05:43:04
Tagged date : UTC 2009-08-24 05:43:04
--------------------------------------------------------------------------------

related torrents

Torrent name

health leech seeds Size
 

comments (0)

Main Menu