Sports related

WRC 2008 Round 07: Griechenland Review German Eurosport h264 AAC MP4

  • Download 5x Faster
  • Download torrent
  • Direct Download
  • Rate this torrent +  |  -

Torrent info

Name:WRC 2008 Round 07: Griechenland Review German Eurosport h264 AAC MP4

Total Size: 365.63 MB

Magnet: Magnet Link

Seeds: 0

Leechers: 0

Stream: Watch Online @ Movie4u

Last Updated: 2010-10-08 15:03:38 (Update Now)

Torrent added: 2009-08-25 18:56:08



VPN For Torrents

Torrent Files List


2008.07.Rally.Griechenland.Review.Ger.Eurosport.h264.q26.624x464.aac.2.0.mp4 (Size: 365.63 MB) (Files: 1)

 2008.07.Rally.Griechenland.Review.Ger.Eurosport.h264.q26.624x464.aac.2.0.mp4

365.63 MB
 

Announce URL: http://open.tracker.thepiratebay.org/announce

Torrent description

PS3 (Playstation) compatible MPEG4 file.

www.wrc.com


MediaInfo:
----------
General
Complete name : 2008.07.Rally.Griechenland.Review.Ger.Eurosport.h264.q26.624x464.aac.2.0.mp4
Format : MPEG-4
Format profile : Base Media
Codec ID : isom
File size : 366 MiB
Duration : 51mn 40s
Overal bit rate : 989 Kbps
Encoded date : UTC 2008-06-03 05:53:37
Tagged date : UTC 2008-06-03 05:53:37

Video
Format : AVC
Format/Info : Advanced Video Codec
Format profile : [email protected]
Format settings, CABAC : Yes
Format settings, ReFrames : 3 frames
Codec ID : avc1
Duration : 51mn 40s
Bit rate mode : Variable
Bit rate : 933 Kbps
Maximum bit rate : 5562 Kbps
Width : 624 pixels
Height : 464 pixels
Display aspect ratio : 4/3
Frame rate mode : Constant
Frame rate : 25.000 fps
Colorimetry : 4:2:0
Scan type : Progressive
Bits/(Pixel*Frame) : 0.129
Stream size : 345 MiB
Writing library : x264 core 59 r859M ce13bb6
Encoding settings : cabac=1 / ref=3 / deblock=1:0:0 / analyse=0x3:0x113 / me=umh
/ subme=6 / me-prepass=0 / brdo=0 / mixed_ref=1 / me_range=12
/ chroma_me=1 / trellis=1 / 8x8dct=1 / cqm=0 / deadzone=21,11
/ chroma_qp_offset=0 / threads=1 / nr=0 / decimate=1
/ mbaff=0 / fgo=0 / bframes=3 / b_pyramid=0 / b_adapt=1
/ b_bias=0 / direct=3 / wpredb=1 / bime=1 / keyint=250
/ keyint_min=25 / scenecut=40 / rc=cqp / qp=26
/ ip_ratio=1.40 / pb_ratio=1.30 / aq=2:1.00
Encoded date : UTC 2008-06-03 05:53:37
Tagged date : UTC 2008-06-03 05:54:20

Audio
Format : AAC
Format/Info : Advanced Audio Codec
Format version : Version 4
Format profile : LC
Format settings, SBR : No
Codec ID : 40
Duration : 51mn 40s
Bit rate mode : Variable
Bit rate : 52.2 Kbps
Maximum bit rate : 77.2 Kbps
Channel(s) : 2 channels
Channel positions : L R
Sampling rate : 48.0 KHz
Resolution : 16 bits
Stream size : 19.3 MiB
Encoded date : UTC 2008-06-03 05:54:16
Tagged date : UTC 2008-06-03 05:54:20

related torrents

Torrent name

health leech seeds Size
 


comments (0)

Main Menu