Other

Fashions of 1934 Bette Davis, Busby Berkeley TV Rip

  • Download 5x Faster
  • Download torrent
  • Direct Download
  • Rate this torrent +  |  -
Fashions of 1934 Bette Davis, Busby Berkeley TV Rip

Anonymous and Direct Download 300GB+ free


Torrent info

Name:Fashions of 1934 Bette Davis, Busby Berkeley TV Rip

Total Size: 665.71 MB

Magnet: Magnet Link

Seeds: 0

Leechers: 0

Stream: Watch Online @ Movie4u

Last Updated: 2013-12-13 07:24:49 (Update Now)

Torrent added: 2009-08-25 18:33:49




Torrent Files List


Fashions of 1934 - Bette Davis, Busby Berkeley TV Rip.avi (Size: 665.71 MB) (Files: 6)

 Fashions of 1934 - Bette Davis, Busby Berkeley TV Rip.avi

661.28 MB

 Sample.avi

4.33 MB

 Fashions of 1934 poster.jpg

59.08 KB

 Fashions of 1934 page.jpg

43.69 KB

 info.txt

2.10 KB

 Torrent downloaded from Demonoid.com.txt

0.05 KB
 

Announce URL:

Torrent description

Fashions of 1934 delivers some amusing asides from such eminent farceurs as William Powell, Hugh Herbert and Verree Teasdale, the latter this time using her famous hauteur for comedy purposes as the Grand Duchess Alix of Hoboken, NJ. Even Bette Davis, who sports a series of rather severe bleach-blond coiffures, joins in the spirit of things and some of the repartee remains highly commendable.

There's the wow feather scene wherein Busby Berkeley has combined a pageant of ostrich plumes to include a Hall of Human Harps, a Web of Dreams, and Venus and Her Galley Slaves. Berkeley again repeats the prismatic formations, dissolves, overhead shots and other of the now established school of BB cinema tricks.

Fashions of 1934 - Bette Davis, Busby Berkeley TV Rip.avi
Format : AVI
Format/Info : Audio Video Interleave
File size : 661 MiB
Duration : 1h 17mn
Overall bit rate : 1 190 Kbps
Video
Format : MPEG-4 Visual
Format settings, BVOP : Yes
Format settings, QPel : No
Format settings, GMC : No warppoints
Format settings, Matrix : Default
Muxing mode : Packed bitstream
Codec ID : DX50
Codec ID/Hint : DivX 5
Duration : 1h 17mn
Bit rate : 1 050 Kbps
Width : 640 pixels
Height : 464 pixels
Display aspect ratio : 1.290
Frame rate : 29.970 fps
Resolution : 24 bits
Colorimetry : 4:2:0
Scan type : Progressive
Bits/(Pixel*Frame) : 0.118
Stream size : 584 MiB (88%)
Title : Video
Writing library : DivX 5.2.1 Alpha (UTC 2004-09-08)
Audio
Format : MPEG Audio
Format version : Version 1
Format profile : Layer 3
Codec ID : 55
Codec ID/Hint : MP3
Duration : 1h 17mn
Bit rate mode : Constant
Bit rate : 128 Kbps
Channel(s) : 2 channels
Sampling rate : 44.1 KHz
Resolution : 16 bits
Stream size : 71.1 MiB (11%)
Alignment : Split accross interleaves
Interleave, duration : 33 ms (1.00 video frame)
Interleave, preload duration : 500 ms
Title : Audio

related torrents

Torrent name

health leech seeds Size
 


comments (0)

Main Menu