Sports related

The Ultimate Fighter S09 E01

  • Download 5x Faster
  • Download torrent
  • Direct Download
  • Rate this torrent +  |  -
The Ultimate Fighter S09 E01

Anonymous and Direct Download 300GB+ free


Torrent info

Name:The Ultimate Fighter S09 E01

Total Size: 377.28 MB

Magnet: Magnet Link

Seeds: 0

Leechers: 0

Stream: Watch Online @ Movie4u

Last Updated: 2016-01-08 01:51:46 (Update Now)

Torrent added: 2009-08-25 18:04:19




Torrent Files List


TUF.s09.ep01.avi (Size: 377.28 MB) (Files: 1)

 TUF.s09.ep01.avi

377.28 MB
 

tracker

leech seeds
 

Torrent description

The Ultimate Fighter: United States vs. United Kingdom is the ninth installment of the Ultimate Fighting Championship (UFC) produced reality television series The Ultimate Fighter, began production in January 2009, and began airing on Spike on April 1, 2009.[1] The season features Lightweight fighters (146-155 lb) and Welterweight fighters (156-170 lb). In order to be considered for the show, a fighter had to have competed in at least three professional bouts prior to the tryouts in October 2008.

UFC Middleweight fighter Michael Bisping will serve as one of the two coaches. The other coach will be Dan Henderson. Henderson earned his place as a coach at UFC 93: Franklin vs. Henderson by defeating Rich Franklin.

Bisping and Henderson will fight each other at UFC 100 on July 11, 2009.

Format : AVI
Format/Info : Audio Video Interleave

Format profile : OpenDML

File size : 377 MiB

Duration : 42mn 5s

Overall bit rate : 1 253 Kbps

Writing application : AVI-Mux GUI 1.17.7, Aug 8 2006 20:59:17



Video

Format : MPEG-4 Visual

Format profile : Streaming [email protected]

Format settings, BVOP : Yes

Format settings, QPel : Yes

Format settings, GMC : No warppoints

Format settings, Matrix : Default (H.263)

Codec ID : XVID

Codec ID/Hint : XviD

Duration : 42mn 5s

Bit rate : 863 Kbps

Width : 512 pixels

Height : 368 pixels

Display aspect ratio : 1.391

Frame rate : 29.970 fps

Resolution : 24 bits

Colorimetry : 4:2:0

Scan type : Progressive

Bits/(Pixel*Frame) : 0.153

Stream size : 260 MiB (69)

Writing library : XviD 1.2.1 (UTC 2008-12-04)



Audio

Format : AC-3

Format/Info : Audio Coding 3

Codec ID : 2000

Duration : 42mn 5s

Bit rate mode : Constant

Bit rate : 384 Kbps

Channel(s) : 2 channels

Channel positions : L R

Sampling rate : 48.0 KHz

Stream size : 116 MiB (31)

Alignment : Aligned on interleaves

Interleave, duration : 64 ms (1.92 video frames)

Interleave, preload duration : 192 ms

Title : TUF Tc0 L2 2ch 48 160 DELAY 0ms

related torrents

Torrent name

health leech seeds Size
 


comments (0)

Main Menu