Anime - Other

Onegai Teacher

  • Download 5x Faster
  • Download torrent
  • Direct Download
  • Rate this torrent +  |  -
Onegai Teacher

Anonymous and Free Direct Download 300GB+


Torrent info

Name:Onegai Teacher

Total Size: 2.70 GB

Magnet: Magnet Link

Seeds: 0

Leechers: 0

Stream: Watch Online @ Movie4u

Last Updated: 2011-02-06 07:41:08 (Update Now)

Torrent added: 2008-06-30 18:33:08



VPN For Torrents

Torrent Files List


E01.-.Bring.es.mir.bitte.bei,Sensei.avi (Size: 2.70 GB) (Files: 13)

 E01.-.Bring.es.mir.bitte.bei,Sensei.avi

210.68 MB

 E02.-.Ich.kann.nicht.mehr.heiraten!.avi

210.43 MB

 E03.-.Oh.nein!.Sensei.avi

210.65 MB

 E04.-.Ich.Liebe.sie.doch.avi

210.84 MB

 E05.-.So.wie.du.bist,finde.ich.dich....avi

210.55 MB

 E06.-.Erst.wenn.es.beginnt,faengt.es.an....avi

210.76 MB

 E07.-.Nicht.weinen,Sensei.avi

210.62 MB

 E08.-.Eine.lange.Nacht.avi

210.71 MB

 E09.-.Lass.uns.es.beenden.avi

210.62 MB

 E10.-.Aber....avi

210.77 MB

 E11.-.Sensei.avi

210.64 MB

 E12.-.Noch.einmal,Teacher.avi

210.64 MB

 OVA.-.Die.geheimnisvollen.Zwei.avi

240.43 MB
 

Announce URL:

Torrent description

Die Geschichte handelt von Kei, der zufällig an einem See liegt, da wo Mizuho mit ihrem Raumschiff auftaucht. Er glaubt es wär alles nur ein Traum, doch am nächsten Tag in der Schule sieht er "diese" Mizuho, die seine Lehrerin geworden ist.
Als sie dann noch plötzlich seine Nachbarin wird, fängt es richtig interessant an.
Sie werden gewzwungen zu heiraten, da Mizuho sonst Probleme kriegen würde, eine Lehrerin und ein minderjähriger Schüler dürfen keine Beziehung haben.
Da erzählt Kei sein Geheimnis. Er hat eine Krankheit, die ihn ins Koma fallen ließ. In Wirklichkeit ist Kei 18. Aber wie soll er es geheim halten, dass er 18 ist und verheiratet, und Mizuho ein Alien ist.

Was wird zwischen Kei und Mizuho geschehen, wie wirds weiter gehen? Oder wird er doch mit seiner Klassenkameradin Herikawa Koishi zusammen kommen und wer ist dieses misteriöses mädchen namens Morino Ichigo und welches Geheimnis hat sie?
Erfahrt es selbst, schaut euch diese lustige aber auch romantische Geschichte an.

Typ TV, 12 (ca. 22 Min.)
Jahr 2002 (10.01.2002 bis 28.03.2002)
Genre
Comedy: Unterhaltsame, lustige Kost,
Ecchi: Humorvolle Inhalte mit sexuellen Anspielungen/Softerotik,
Romance: unterhaltsame Beziehungskisten,
Schoolkids: Szenario spielt sich in der Schule ab oder handelt zumindest von Schülern,


Format : AVI
Format/Info : Audio Video Interleave
Dateigre : 211 MiB
Duration : 22min
Gesamte Bitrate : 1306 Kbps
Verwendetes Programm : VirtualDubMod 1.5.10.1 (build 2366/release)
verwendete Encoder-Bibliothek : VirtualDubMod build 2366/release

Video
Format : MPEG-4 Visual
Format profile : Streaming [email protected]
Format settings, BVOP : Yes
Format settings, QPel : No
Format settings, GMC : 0 warppoint
Format settings, Matrix : Custom
Codec ID : XVID
Codec ID/Hint : XviD
Duration : 22min
Bitrate : 1136 Kbps
Breite : 688 Pixel
Höhe : 512 Pixel
Bildseitenverhältnis : 4/3
Bildwiederholungsrate : 25.000 FPS
Auflösung : 8 bits
Colorimetry : 4:2:0
Scan type : Progressive
Bits/(Pixel*Frame) : 0.129
Stream size : 183 MiB
verwendete Encoder-Bibliothek : XviD 1.1.0
verwendete Encoder-Bibliothek /D : UTC 2005-11-22

Audio
Format : MPEG Audio
Format version : Version 1 / Layer 3
Codec ID : 55
Codec ID/Hint : MP3
Duration : 22min
Bitraten-Modus : CBR
Bitrate : 160 Kbps
Minimum bit rate : 160 Kbps
Kanäle : 2 Kanäle
Samplingrate : 48.0 KHz
Auflösung : 16 bits
Stream size : 25.8 MiB
verwendete Encoder-Bibliothek : LAME3.97b
Kodierungseinstellungen : CBR


Audio: japanisch
Untertitel: deutsch

related torrents

Torrent name

health leech seeds Size
 


comments (0)

Main Menu