Other

((Demonoid com)) A E biography charles whitman dvbt x264 aac mp4 1225403 043

  • Download 5x Faster
  • Download torrent
  • Direct Download
  • Rate this torrent +  |  -

Torrent info

Name:((Demonoid com)) A E biography charles whitman dvbt x264 aac mp4 1225403 043

Total Size: 347.11 MB

Magnet: Magnet Link

Seeds: 0

Leechers: 0

Stream: Watch Online @ Movie4u

Last Updated: 2015-10-19 23:16:14 (Update Now)

Torrent added: 2009-09-08 00:00:00




Torrent Files List


A&E.biography_charles.whitman_dvbt.x264.aac.mp4 (Size: 347.11 MB) (Files: 2)

 A&E.biography_charles.whitman_dvbt.x264.aac.mp4

347.11 MB

 Torrent downloaded from Demonoid.com.txt

0.05 KB
 

Announce URL:

Torrent description

At 12, he was the youngest Eagle Scout in America. He was an altar boy and the pitcher on his Catholic school's baseball team. To everyone, Charles Joseph Whitman seemed like the quintessential "All American Boy". But on August 1, 1966, at the age of 25, one day after he'd brutally murdered his mother and wife, Whitman carried a small arsenal of high-powered weapons and 700 rounds of ammunition to the top of the University of Texas clock tower. For 97 minutes, he shot at the students, teachers and bystanders below, wounding 31 and killing 14. At that time, it was the worst mass murder in U.S. history.

General
Complete name : A&E.biography_charles.whitman_dvbt.x264.aac.mp4
Format : MPEG-4
File size : 347 MiB
Duration : 42mn 12s
Overall bit rate : 1150 Kbps

Video
Format : AVC
Format/Info : Advanced Video Codec
Format profile : [email protected]
Bit rate mode : Variable
Bit rate : 1016 Kbps
Width : 640 pixels
Height : 480 pixels
Display aspect ratio : 4/3
Frame rate : 25.000 fps
Colorimetry : 4:2:0
Scan type : Progressive
Bits/(Pixel*Frame) : 0.132
Stream size : 307 MiB (88%)
Writing library : x264 core 60 r899M f8428ed

Audio
Format : AAC
Format/Info : Advanced Audio Codec
Bit rate mode : Variable
Bit rate : 128 Kbps
Channel(s) : 2 channels
Channel positions : L R
Sampling rate : 48.0 KHz
Resolution : 16 bits
Stream size : 38.6 MiB (11%)

related torrents

Torrent name

health leech seeds Size
 


comments (0)

Main Menu