Sports related

NBA 2009 ECF G5 [email protected] x264 [email protected]

  • Download 5x Faster
  • Download torrent
  • Direct Download
  • Rate this torrent +  |  -
NBA 2009 ECF G5 [email protected] x264 [email protected]

Anonymous and Direct Download 300GB+ free


Torrent info

Name:NBA 2009 ECF G5 [email protected] x264 [email protected]

Total Size: 1.04 GB

Magnet: Magnet Link

Seeds: 6

Leechers: 3

Stream: Watch Online @ Movie4u

Last Updated: 2010-09-30 22:38:55 (Update Now)

Torrent added: 2009-08-25 13:18:30




Torrent Files List


[email protected]@SSC.mp4 (Size: 1.04 GB) (Files: 1)

 [email protected]@SSC.mp4

1.04 GB
 

Announce URL: http://open.tracker.thepiratebay.org/announce

Torrent description

General
Format : MPEG-4
Format profile : Base Media
Codec ID : isom
File size : 1.04 GiB
Duration : 2h 11mn
Overall bit rate : 1 134 Kbps
Encoded date : UTC 2009-05-28 07:23:45
Tagged date : UTC 2009-05-28 07:23:45

Video
Format : AVC
Format/Info : Advanced Video Codec
Format profile : [email protected]
Format settings, CABAC : Yes
Format settings, ReFrames : 2 frames
Codec ID : avc1
Codec ID/Info : Advanced Video Coding
Duration : 2h 11mn
Bit rate mode : Variable
Bit rate : 1 000 Kbps
Maximum bit rate : 2 326 Kbps
Width : 624 pixels
Height : 352 pixels
Display aspect ratio : 16/9
Frame rate mode : Constant
Frame rate : 29.970 fps
Resolution : 24 bits
Colorimetry : 4:2:0
Scan type : Progressive
Bits/(Pixel*Frame) : 0.152
Stream size : 943 MiB (88%)
Writing library : x264 core 67 r1145 d2e1e1c


Audio
Format : AAC
Format/Info : Advanced Audio Codec
Format version : Version 4
Format profile : LC
Format settings, SBR : No
Codec ID : 40
Duration : 2h 11mn
Bit rate mode : Variable
Bit rate : 128 Kbps
Maximum bit rate : 164 Kbps
Channel(s) : 2 channels
Channel positions : L R
Sampling rate : 48.0 KHz
Resolution : 16 bits
Stream size : 121 MiB (11%)
Encoded date : UTC 2009-05-28 07:25:45
Tagged date : UTC 2009-05-28 07:25:57

related torrents

Torrent name

health leech seeds Size
 


comments (0)

Main Menu