Action

Crash TR EN AC3 DvDRip XviD TLine Dirty deeds

  • Download 5x Faster
  • Download torrent
  • Direct Download
  • Rate this torrent +  |  -
Crash TR EN AC3 DvDRip XviD TLine Dirty deeds

Anonymous and Direct Download 300GB+ free


Torrent info

Name:Crash TR EN AC3 DvDRip XviD TLine Dirty deeds

Total Size: 1.37 GB

Magnet: Magnet Link

Seeds: 1

Leechers: 0

Stream: Watch Online @ Movie4u

Last Updated: 0000-00-00 00:00:00 (Update Now)

Torrent added: 2008-07-31 12:40:10




Torrent Files List


Crash.TR-EN AC3.DvDRip.XviD-TLine.cd1 (Size: 1.37 GB) (Files: 102)

 Crash.TR-EN AC3.DvDRip.XviD-TLine.cd1

  Crash.TR-EN AC3.DvDRip.XviD-TLine.cd1

   TLineca.r00

14.31 MB

   TLineca.r01

14.31 MB

   TLineca.r02

14.31 MB

   TLineca.r03

14.31 MB

   TLineca.r04

14.31 MB

   TLineca.r05

14.31 MB

   TLineca.r06

14.31 MB

   TLineca.r07

14.31 MB

   TLineca.r08

14.31 MB

   TLineca.r09

14.31 MB

   TLineca.r10

14.31 MB

   TLineca.r11

14.31 MB

   TLineca.r12

14.31 MB

   TLineca.r13

14.31 MB

   TLineca.r14

14.31 MB

   TLineca.r15

14.31 MB

   TLineca.r16

14.31 MB

   TLineca.r17

14.31 MB

   TLineca.r18

14.31 MB

   TLineca.r19

14.31 MB

   TLineca.r20

14.31 MB

   TLineca.r21

14.31 MB

   TLineca.r22

14.31 MB

   TLineca.r23

14.31 MB

   TLineca.r24

14.31 MB

   TLineca.r25

14.31 MB

   TLineca.r26

14.31 MB

   TLineca.r27

14.31 MB

   TLineca.r28

14.31 MB

   TLineca.r29

14.31 MB

   TLineca.r30

14.31 MB

   TLineca.r31

14.31 MB

   TLineca.r32

14.31 MB

   TLineca.r33

14.31 MB

   TLineca.r34

14.31 MB

   TLineca.r35

14.31 MB

   TLineca.r36

14.31 MB

   TLineca.r37

14.31 MB

   TLineca.r38

14.31 MB

   TLineca.r39

14.31 MB

   TLineca.r40

14.31 MB

   TLineca.r41

14.31 MB

   TLineca.r42

14.31 MB

   TLineca.r43

14.31 MB

   TLineca.r44

14.31 MB

   TLineca.r45

14.31 MB

   TLineca.r46

14.31 MB

   TLineca.r47

12.08 MB

   TLineca.rar

14.31 MB

   TLineca.sfv

3.50 KB

 Crash.TR-EN AC3.DvDRip.XviD-TLine.cd2

  Crash.TR-EN AC3.DvDRip.XviD-TLine.cd2

   TLineca.r00

14.31 MB

   TLineca.r01

14.31 MB

   TLineca.r02

14.31 MB

   TLineca.r03

14.31 MB

   TLineca.r04

14.31 MB

   TLineca.r05

14.31 MB

   TLineca.r06

14.31 MB

   TLineca.r07

14.31 MB

   TLineca.r08

14.31 MB

   TLineca.r09

14.31 MB

   TLineca.r10

14.31 MB

   TLineca.r11

14.31 MB

   TLineca.r12

14.31 MB

   TLineca.r13

14.31 MB

   TLineca.r14

14.31 MB

   TLineca.r15

14.31 MB

   TLineca.r16

14.31 MB

   TLineca.r17

14.31 MB

   TLineca.r18

14.31 MB

   TLineca.r19

14.31 MB

   TLineca.r20

14.31 MB

   TLineca.r21

14.31 MB

   TLineca.r22

14.31 MB

   TLineca.r23

14.31 MB

   TLineca.r24

14.31 MB

   TLineca.r25

14.31 MB

   TLineca.r26

14.31 MB

   TLineca.r27

14.31 MB

   TLineca.r28

14.31 MB

   TLineca.r29

14.31 MB

   TLineca.r30

14.31 MB

   TLineca.r31

14.31 MB

   TLineca.r32

14.31 MB

   TLineca.r33

14.31 MB

   TLineca.r34

14.31 MB

   TLineca.r35

14.31 MB

   TLineca.r36

14.31 MB

   TLineca.r37

14.31 MB

   TLineca.r38

14.31 MB

   TLineca.r39

14.31 MB

   TLineca.r40

14.31 MB

   TLineca.r41

14.31 MB

   TLineca.r42

14.31 MB

   TLineca.r43

14.31 MB

   TLineca.r44

14.31 MB

   TLineca.r45

14.31 MB

   TLineca.r46

14.31 MB

   TLineca.r47

14.31 MB

   TLineca.r48

804.32 KB

   TLineca.rar

14.31 MB

   TLineca.sfv

3.57 KB

 Crash.TR-EN AC3.DvDRip.XviD-TLine.nfo

9.01 KB
 

Announce URL: http://dirty-deeds.hopto.org/announce.php

Torrent description

Details
Name: Crash TR-ENG AC3 DvDRip XviD-TLine
Description:
TLine

Crash TR-EN AC3.DvDRip.XviD-TLine
http://www.imdb.com/title/tt0375679/

Ripper : 17mayis
Format : AVI
Format/Info : Audio Video Interleave
File size : 699 MiB
Duration : 55mn 40s
Overall bit rate : 1754 Kbps
Writing application : VirtualDubMod 1.5.4.1 (build 2178/release)
Writing library : VirtualDubMod build 2178/release
IAS1 : English / English
IAS2 : Turkish / Turkish

Video
Format : MPEG-4 Visual
Format profile : Streaming [email protected]
Format settings, BVOP : Yes
Format settings, QPel : No
Format settings, GMC : No warppoints
Format settings, Matrix : Custom
Codec ID : XVID
Codec ID/Hint : XviD
Duration : 55mn 40s
Bit rate : 1361 Kbps
Width : 720 pixels
Height : 320 pixels
Display aspect ratio : 2.25
Frame rate : 25.000 fps
Resolution : 8 bits
Colorimetry : 4:2:0
Scan type : Progressive
Bits/(Pixel*Frame) : 0.236
Stream size : 542 MiB (78%)
Writing library : XviD 1.2.0.dev47 (UTC 2006-11-01)

Audio #1
Format : AC-3
Format/Info : Audio Coding 3
Codec ID : 2000
Duration : 55mn 40s
Bit rate mode : Constant
Bit rate : 192 Kbps
Channel(s) : 2 channels
Channel positions : L R
Sampling rate : 48.0 KHz
Stream size : 76.5 MiB (11%)
Alignment : Aligned on interleaves
Interleave, duration : 96 ms (2.40 video frames)
Interleave, preload duration : 96 ms

Audio #2
Format : AC-3
Format/Info : Audio Coding 3
Codec ID : 2000
Duration : 55mn 40s
Bit rate mode : Constant
Bit rate : 192 Kbps
Channel(s) : 2 channels
Channel positions : L R
Sampling rate : 48.0 KHz
Stream size : 76.5 MiB (11%)
Alignment : Aligned on interleaves
Interleave, duration : 96 ms (2.40 video frames)
Interleave, preload duration : 96 ms

related torrents

Torrent name

health leech seeds Size
 


comments (0)

Main Menu