Movies - Other

Into The Wild TR EN AC3 DvDRip XviD TLine Dirty deeds

  • Download 5x Faster
  • Download torrent
  • Direct Download
  • Rate this torrent +  |  -
Into The Wild TR EN AC3 DvDRip XviD TLine Dirty deeds

Anonymous and Free Direct Download


Torrent info

Name:Into The Wild TR EN AC3 DvDRip XviD TLine Dirty deeds

Total Size: 1.37 GB

Magnet: Magnet Link

Seeds: 1

Leechers: 0

Stream: Watch Online @ Movie4u

Last Updated: 2010-08-01 03:18:56 (Update Now)

Torrent added: 2008-07-31 12:40:10



VPN For Torrents

Torrent Files List


Into The Wild.TR-EN AC3.DvDRip.XviD-TLine.cd1 (Size: 1.37 GB) (Files: 101)

 Into The Wild.TR-EN AC3.DvDRip.XviD-TLine.cd1

  Into The Wild.TR-EN AC3.DvDRip.XviD-TLine.cd1

   TLineitwa.r00

14.31 MB

   TLineitwa.r01

14.31 MB

   TLineitwa.r02

14.31 MB

   TLineitwa.r03

14.31 MB

   TLineitwa.r04

14.31 MB

   TLineitwa.r05

14.31 MB

   TLineitwa.r06

14.31 MB

   TLineitwa.r07

14.31 MB

   TLineitwa.r08

14.31 MB

   TLineitwa.r09

14.31 MB

   TLineitwa.r10

14.31 MB

   TLineitwa.r11

14.31 MB

   TLineitwa.r12

14.31 MB

   TLineitwa.r13

14.31 MB

   TLineitwa.r14

14.31 MB

   TLineitwa.r15

14.31 MB

   TLineitwa.r16

14.31 MB

   TLineitwa.r17

14.31 MB

   TLineitwa.r18

14.31 MB

   TLineitwa.r19

14.31 MB

   TLineitwa.r20

14.31 MB

   TLineitwa.r21

14.31 MB

   TLineitwa.r22

14.31 MB

   TLineitwa.r23

14.31 MB

   TLineitwa.r24

14.31 MB

   TLineitwa.r25

14.31 MB

   TLineitwa.r26

14.31 MB

   TLineitwa.r27

14.31 MB

   TLineitwa.r28

14.31 MB

   TLineitwa.r29

14.31 MB

   TLineitwa.r30

14.31 MB

   TLineitwa.r31

14.31 MB

   TLineitwa.r32

14.31 MB

   TLineitwa.r33

14.31 MB

   TLineitwa.r34

14.31 MB

   TLineitwa.r35

14.31 MB

   TLineitwa.r36

14.31 MB

   TLineitwa.r37

14.31 MB

   TLineitwa.r38

14.31 MB

   TLineitwa.r39

14.31 MB

   TLineitwa.r40

14.31 MB

   TLineitwa.r41

14.31 MB

   TLineitwa.r42

14.31 MB

   TLineitwa.r43

14.31 MB

   TLineitwa.r44

14.31 MB

   TLineitwa.r45

14.31 MB

   TLineitwa.r46

14.31 MB

   TLineitwa.r47

13.64 MB

   TLineitwa.rar

14.31 MB

   TLineitwa.sfv

3.69 KB

 Into The Wild.TR-EN AC3.DvDRip.XviD-TLine.cd2

  Into The Wild.TR-EN AC3.DvDRip.XviD-TLine.cd2

   TLineitwa.r00

14.31 MB

   TLineitwa.r01

14.31 MB

   TLineitwa.r02

14.31 MB

   TLineitwa.r03

14.31 MB

   TLineitwa.r04

14.31 MB

   TLineitwa.r05

14.31 MB

   TLineitwa.r06

14.31 MB

   TLineitwa.r07

14.31 MB

   TLineitwa.r08

14.31 MB

   TLineitwa.r09

14.31 MB

   TLineitwa.r10

14.31 MB

   TLineitwa.r11

14.31 MB

   TLineitwa.r12

14.31 MB

   TLineitwa.r13

14.31 MB

   TLineitwa.r14

14.31 MB

   TLineitwa.r15

14.31 MB

   TLineitwa.r16

14.31 MB

   TLineitwa.r17

14.31 MB

   TLineitwa.r18

14.31 MB

   TLineitwa.r19

14.31 MB

   TLineitwa.r20

14.31 MB

   TLineitwa.r21

14.31 MB

   TLineitwa.r22

14.31 MB

   TLineitwa.r23

14.31 MB

   TLineitwa.r24

14.31 MB

   TLineitwa.r25

14.31 MB

   TLineitwa.r26

14.31 MB

   TLineitwa.r27

14.31 MB

   TLineitwa.r28

14.31 MB

   TLineitwa.r29

14.31 MB

   TLineitwa.r30

14.31 MB

   TLineitwa.r31

14.31 MB

   TLineitwa.r32

14.31 MB

   TLineitwa.r33

14.31 MB

   TLineitwa.r34

14.31 MB

   TLineitwa.r35

14.31 MB

   TLineitwa.r36

14.31 MB

   TLineitwa.r37

14.31 MB

   TLineitwa.r38

14.31 MB

   TLineitwa.r39

14.31 MB

   TLineitwa.r40

14.31 MB

   TLineitwa.r41

14.31 MB

   TLineitwa.r42

14.31 MB

   TLineitwa.r43

14.31 MB

   TLineitwa.r44

14.31 MB

   TLineitwa.r45

14.31 MB

   TLineitwa.r46

14.31 MB

   TLineitwa.r47

13.94 MB

   TLineitwa.rar

14.31 MB

   TLineitwa.sfv

3.69 KB

 Into The Wild.TR-EN AC3.DvDRip.XviD-TLine.nfo

9.06 KB
 

Announce URL: http://dirty-deeds.hopto.org/announce.php

Torrent description

Details
Name: Into The Wild TR-ENG AC3 DvDRip XviD-TLine
Description:
TLine

Into The Wild.TR-EN AC3.DvDRip.XviD-TLine
http://www.imdb.com/title/tt0758758/

Ripper : 17mayis
Format : AVI
Format/Info : Audio Video Interleave
File size : 700 MiB
Duration : 1h 9mn
Overall bit rate : 1400 Kbps
Writing application : VirtualDubMod 1.5.4.1 (build 2178/release)
Writing library : VirtualDubMod build 2178/release
IAS1 : English / English
IAS2 : Turkish / Turkish

Video
Format : MPEG-4 Visual
Format profile : Streaming [email protected]
Format settings, BVOP : Yes
Format settings, QPel : No
Format settings, GMC : No warppoints
Format settings, Matrix : Custom
Codec ID : XVID
Codec ID/Hint : XviD
Duration : 1h 9mn
Bit rate : 495 Kbps
Width : 720 pixels
Height : 304 pixels
Display aspect ratio : 2.35
Frame rate : 25.000 fps
Resolution : 8 bits
Colorimetry : 4:2:0
Scan type : Progressive
Bits/(Pixel*Frame) : 0.091
Stream size : 248 MiB (35%)
Writing library : XviD 1.2.0.dev47 (UTC 2006-11-01)

Audio #1
Format : AC-3
Format/Info : Audio Coding 3
Codec ID : 2000
Duration : 1h 9mn
Bit rate mode : Constant
Bit rate : 448 Kbps
Channel(s) : 6 channels
Channel positions : Front: L C R, Rear: L R, LFE
Sampling rate : 48.0 KHz
Stream size : 224 MiB (32%)
Alignment : Aligned on interleaves
Interleave, duration : 96 ms (2.40 video frames)
Interleave, preload duration : 96 ms

Audio #2
Format : AC-3
Format/Info : Audio Coding 3
Codec ID : 2000
Duration : 1h 9mn
Bit rate mode : Constant
Bit rate : 448 Kbps
Channel(s) : 6 channels
Channel positions : Front: L C R, Rear: L R, LFE
Sampling rate : 48.0 KHz
Stream size : 224 MiB (32%)
Alignment : Aligned on interleaves
Interleave, duration : 96 ms (2.40 video frames)
Interleave, preload duration : 96 ms

related torrents

Torrent name

health leech seeds Size
 


comments (0)

Main Menu