Drama

Step Up TR EN AC3 DvDRip XviD TLine Dirty deeds

  • Download 5x Faster
  • Download torrent
  • Direct Download
  • Rate this torrent +  |  -
Step Up TR EN AC3 DvDRip XviD TLine Dirty deeds

Anonymous and free Direct Download 300GB+


Torrent info

Name:Step Up TR EN AC3 DvDRip XviD TLine Dirty deeds

Total Size: 1.37 GB

Magnet: Magnet Link

Seeds: 1

Leechers: 0

Stream: Watch Online @ Movie4u

Last Updated: 2010-09-25 14:23:20 (Update Now)

Torrent added: 2008-07-31 12:40:02



VPN For Torrents

Torrent Files List


Step Up.TR-EN AC3.DvDRip.XviD-TLine.cd1 (Size: 1.37 GB) (Files: 101)

 Step Up.TR-EN AC3.DvDRip.XviD-TLine.cd1

  Step Up.TR-EN AC3.DvDRip.XviD-TLine.cd1

   TLinesua.r00

14.31 MB

   TLinesua.r01

14.31 MB

   TLinesua.r02

14.31 MB

   TLinesua.r03

14.31 MB

   TLinesua.r04

14.31 MB

   TLinesua.r05

14.31 MB

   TLinesua.r06

14.31 MB

   TLinesua.r07

14.31 MB

   TLinesua.r08

14.31 MB

   TLinesua.r09

14.31 MB

   TLinesua.r10

14.31 MB

   TLinesua.r11

14.31 MB

   TLinesua.r12

14.31 MB

   TLinesua.r13

14.31 MB

   TLinesua.r14

14.31 MB

   TLinesua.r15

14.31 MB

   TLinesua.r16

14.31 MB

   TLinesua.r17

14.31 MB

   TLinesua.r18

14.31 MB

   TLinesua.r19

14.31 MB

   TLinesua.r20

14.31 MB

   TLinesua.r21

14.31 MB

   TLinesua.r22

14.31 MB

   TLinesua.r23

14.31 MB

   TLinesua.r24

14.31 MB

   TLinesua.r25

14.31 MB

   TLinesua.r26

14.31 MB

   TLinesua.r27

14.31 MB

   TLinesua.r28

14.31 MB

   TLinesua.r29

14.31 MB

   TLinesua.r30

14.31 MB

   TLinesua.r31

14.31 MB

   TLinesua.r32

14.31 MB

   TLinesua.r33

14.31 MB

   TLinesua.r34

14.31 MB

   TLinesua.r35

14.31 MB

   TLinesua.r36

14.31 MB

   TLinesua.r37

14.31 MB

   TLinesua.r38

14.31 MB

   TLinesua.r39

14.31 MB

   TLinesua.r40

14.31 MB

   TLinesua.r41

14.31 MB

   TLinesua.r42

14.31 MB

   TLinesua.r43

14.31 MB

   TLinesua.r44

14.31 MB

   TLinesua.r45

14.31 MB

   TLinesua.r46

14.31 MB

   TLinesua.r47

13.62 MB

   TLinesua.rar

14.31 MB

   TLinesua.sfv

3.59 KB

 Step Up.TR-EN AC3.DvDRip.XviD-TLine.cd2

  Step Up.TR-EN AC3.DvDRip.XviD-TLine.cd2

   TLinesua.r00

14.31 MB

   TLinesua.r01

14.31 MB

   TLinesua.r02

14.31 MB

   TLinesua.r03

14.31 MB

   TLinesua.r04

14.31 MB

   TLinesua.r05

14.31 MB

   TLinesua.r06

14.31 MB

   TLinesua.r07

14.31 MB

   TLinesua.r08

14.31 MB

   TLinesua.r09

14.31 MB

   TLinesua.r10

14.31 MB

   TLinesua.r11

14.31 MB

   TLinesua.r12

14.31 MB

   TLinesua.r13

14.31 MB

   TLinesua.r14

14.31 MB

   TLinesua.r15

14.31 MB

   TLinesua.r16

14.31 MB

   TLinesua.r17

14.31 MB

   TLinesua.r18

14.31 MB

   TLinesua.r19

14.31 MB

   TLinesua.r20

14.31 MB

   TLinesua.r21

14.31 MB

   TLinesua.r22

14.31 MB

   TLinesua.r23

14.31 MB

   TLinesua.r24

14.31 MB

   TLinesua.r25

14.31 MB

   TLinesua.r26

14.31 MB

   TLinesua.r27

14.31 MB

   TLinesua.r28

14.31 MB

   TLinesua.r29

14.31 MB

   TLinesua.r30

14.31 MB

   TLinesua.r31

14.31 MB

   TLinesua.r32

14.31 MB

   TLinesua.r33

14.31 MB

   TLinesua.r34

14.31 MB

   TLinesua.r35

14.31 MB

   TLinesua.r36

14.31 MB

   TLinesua.r37

14.31 MB

   TLinesua.r38

14.31 MB

   TLinesua.r39

14.31 MB

   TLinesua.r40

14.31 MB

   TLinesua.r41

14.31 MB

   TLinesua.r42

14.31 MB

   TLinesua.r43

14.31 MB

   TLinesua.r44

14.31 MB

   TLinesua.r45

14.31 MB

   TLinesua.r46

14.31 MB

   TLinesua.r47

13.93 MB

   TLinesua.rar

14.31 MB

   TLinesua.sfv

3.59 KB

 Step Up.TR-EN AC3.DvDRip.XviD-TLine.nfo

9.04 KB
 

Announce URL: http://dirty-deeds.hopto.org/announce.php

Torrent description

Details
Name: Step Up TR-ENG AC3 DvDRip XviD-TLine
Description:
TLine

Step Up.TR-EN AC3.DvDRip.XviD-TLine
http://www.imdb.com/title/tt0462590/

Ripper : 17mayis
Format : AVI
Format/Info : Audio Video Interleave
File size : 700 MiB
Duration : 48mn 36s
Overall bit rate : 2014 Kbps
Writing application : VirtualDubMod 1.5.4.1 (build 2178/release)
Writing library : VirtualDubMod build 2178/release
IAS1 : English / English
IAS2 : Turkish / Turkish

Video
Format : MPEG-4 Visual
Format profile : Streaming [email protected]
Format settings, BVOP : Yes
Format settings, QPel : No
Format settings, GMC : No warppoints
Format settings, Matrix : Custom
Codec ID : XVID
Codec ID/Hint : XviD
Duration : 48mn 36s
Bit rate : 1365 Kbps
Width : 720 pixels
Height : 320 pixels
Display aspect ratio : 2.25
Frame rate : 25.000 fps
Resolution : 8 bits
Colorimetry : 4:2:0
Scan type : Progressive
Bits/(Pixel*Frame) : 0.237
Stream size : 475 MiB (68%)
Writing library : XviD 1.2.0.dev47 (UTC 2006-11-01)

Audio #1
Format : AC-3
Format/Info : Audio Coding 3
Codec ID : 2000
Duration : 48mn 36s
Bit rate mode : Constant
Bit rate : 448 Kbps
Channel(s) : 6 channels
Channel positions : Front: L C R, Rear: L R, LFE
Sampling rate : 48.0 KHz
Stream size : 156 MiB (22%)
Alignment : Aligned on interleaves
Interleave, duration : 96 ms (2.40 video frames)
Interleave, preload duration : 96 ms

Audio #2
Format : AC-3
Format/Info : Audio Coding 3
Codec ID : 2000
Duration : 48mn 36s
Bit rate mode : Constant
Bit rate : 192 Kbps
Channel(s) : 2 channels
Channel positions : L R
Sampling rate : 48.0 KHz
Stream size : 66.8 MiB (10%)
Alignment : Aligned on interleaves
Interleave, duration : 96 ms (2.40 video frames)
Interleave, preload duration : 96 ms

related torrents

Torrent name

health leech seeds Size
 


comments (0)

Main Menu