Sports related

Manchester United Season Review 2008 09

  • Download 5x Faster
  • Download torrent
  • Direct Download
  • Rate this torrent +  |  -
Manchester United Season Review 2008 09

Anonymous and Free Direct Download 300GB+


Torrent info

Name:Manchester United Season Review 2008 09

Total Size: 2.74 GB

Magnet: Magnet Link

Seeds: 0

Leechers: 0

Stream: Watch Online @ Movie4u

Last Updated: 2015-11-25 15:18:30 (Update Now)

Torrent added: 2009-08-25 12:04:45



VPN For Torrents

Torrent Files List


CD1.mp4 (Size: 2.74 GB) (Files: 4)

 CD1.mp4

700.32 MB

 CD2.mp4

700.33 MB

 CD3.mp4

700.32 MB

 CD4.mp4

700.28 MB
 

tracker

leech seeds
 

Torrent description

Complete name : Official Manchester United Season Review 2008-09 DVDRip (2.73 GB) CD1.mp4
Format : MPEG-4
Format profile : Base Media
Codec ID : isom
File size : 700 MiB
Duration : 43mn 22s
Overall bit rate : 2 257 Kbps
Encoded date : UTC 2009-06-23 12:48:29
Tagged date : UTC 2009-06-23 12:48:29
Video #1
Format : AVC
Format/Info : Advanced Video Codec
Format profile : [email protected]
Format settings, CABAC : Yes
Format settings, ReFrames : 5 frames
Codec ID : avc1
Codec ID/Info : Advanced Video Coding
Duration : 43mn 22s
Bit rate mode : Variable
Bit rate : 2 127 Kbps
Maximum bit rate : 5 399 Kbps
Width : 720 pixels
Height : 576 pixels
Display aspect ratio : 16/9
Frame rate mode : Constant
Frame rate : 25.000 fps
Standard : PAL
Resolution : 24 bits
Colorimetry : 4:2:0
Scan type : Progressive
Bits/(Pixel*Frame) : 0.205
Stream size : 660 MiB (94%)
Title : Video
Writing library : x264 core 64 r979 6d4af8d
Encoding settings : cabac=1 / ref=5 / deblock=1:-1:-1 / analyse=0x3:0x113 / me=umh / subme=6 / psy_rd=1.0:0.0 / brdo=1 / mixed_ref=1 / me_range=16 / chroma_me=1 / trellis=2 / 8x8dct=1 / cqm=0 / deadzone=21,11 / chroma_qp_offset=-2 / threads=3 / nr=0 / decimate=1 / mbaff=0 / bframes=3 / b_pyramid=1 / b_adapt=2 / b_bias=0 / direct=3 / wpredb=1 / bime=1 / keyint=250 / keyint_min=25 / scenecut=40(pre) / rc=2pass / bitrate=2127 / ratetol=1.0 / qcomp=0.60 / qpmin=10 / qpmax=51 / qpstep=4 / cplxblur=20.0 / qblur=0.5 / ip_ratio=1.40 / pb_ratio=1.30 / aq=1:1.00
Encoded date : UTC 2009-06-23 12:48:29
Tagged date : UTC 2009-06-23 12:49:45

Audio #2
Format : MPEG Audio
Format version : Version 1
Format profile : Layer 3
Codec ID : 6B
Duration : 43mn 22s
Bit rate mode : Constant
Bit rate : 128 Kbps
Maximum bit rate : 132 Kbps
Channel(s) : 2 channels
Sampling rate : 48.0 KHz
Resolution : 16 bits
Stream size : 39.7 MiB (6%)
Title : English
Writing library : LAME3.97 (beta)
Language : English
Encoded date : UTC 2009-06-23 12:49:42
Tagged date : UTC 2009-06-23 12:49:45

XHTML | CSS | Mininova toolbar Mininova toolbar | LightTPD logo LightTPD

Copyright 2009 Mininova. All rights reserved.

More info: RSS | Privacy policy | Copyright policy | Contact us

This page was generated in 0.003 seconds by server-14.

related torrents

Torrent name

health leech seeds Size
 


comments (0)

Main Menu