Comedy

Dance Flick[2009]DvDrip LW [Bit Byte]

  • Download 5x Faster
  • Download torrent
  • Direct Download
  • Rate this torrent +  |  -
Dance Flick[2009]DvDrip LW [Bit Byte]

Anonymous and Free Direct Download 300GB+


Torrent info

Name:Dance Flick[2009]DvDrip LW [Bit Byte]

Total Size: 700.15 MB

Magnet: Magnet Link

Seeds: 29

Leechers: 4

Stream: Watch Online @ Movie4u

Last Updated: 2010-11-27 00:26:01 (Update Now)

Torrent added: 2009-08-25 09:35:29



VPN For Torrents

Torrent Files List


Covers (Size: 700.15 MB) (Files: 7)

 Covers

  Cover.jpg

110.14 KB

  DvD Cover.jpg

17.40 KB

 Info

  Movie Info.nfo

4.27 KB

  Movie Info.txt

3.06 KB

 Movie

  Dance Flick[2009]DvDrip-LW.avi

700.02 MB

 Trackers

  Torrent_downloaded_from_Demonoid.com.txt

0.05 KB

  tracked_by_h33t_com.txt

0.02 KB
 

Announce URL: http://www.h33t.com:3310/announce

Torrent description

ßßßßßßßßßßßßßßßßßßßßßßßßßßßßßßßßßßßßßßßßßßßßßßßßßßßßßßßßßßßßßßßßßßßßßß

Û°°°°°°°°°°°°°°°°°°°°°°°°°°°°Û
ÛÛ Dance Flick[2009]DvDrip-LW ÛÛ
Û°°°°°°°°°°°°°°°°°°°°°°°°°°°°Û

File Name : Dance Flick[2009]DvDrip-LW
Type : Movie
Format : AVI
File Size : 700 MB
Duration : 01:47:19
Language : English
Source : DvD
Subtitles : None
Genre : Action | Comedy | Music
IMDB Link : http://www.imdb.com/title/tt1153706/
IMDB Rating : 2.9/10
IMDB Votes : 2,107 Votes
ÜÜÜÜÜÜÜÜÜÜÜÜÜÜÜÜÜÜÜÜÜÜÜÜÜÜÜÜÜÜÜÜÜÜÜÜÜÜÜÜÜÜÜÜÜÜÜÜÜÜÜÜÜÜÜÜÜÜÜÜÜÜÜÜÜÜÜÜÜÜ

Û°°°°°°°°°°°°°°°°°°°°°°°°Û
ÛÛ Video Info ÛÛ
Û°°°°°°°°°°°°°°°°°°°°°°°°Û

Format : MPEG-4 Visual
Format profile : Streaming [email protected]
Format settings, BVOP : Yes
Format settings, QPel : No
Format settings, GMC : No warppoints
Format settings, Matrix : Default (H.263)
Muxing mode : Packed bitstream
Codec ID : XVID
Codec ID/Hint : XviD
Duration : 1h 28mn
Bit rate : 948 Kbps
Width : 624 pixels
Height : 352 pixels
Display aspect ratio : 16/9
Frame rate : 23.976 fps
Resolution : 24 bits
Colorimetry : 4:2:0
Scan type : Progressive
Bits/(Pixel*Frame) : 0.180
Stream size : 599 MiB (86%)
Writing library : XviD 1.2.0
ÜÜÜÜÜÜÜÜÜÜÜÜÜÜÜÜÜÜÜÜÜÜÜÜÜÜÜÜÜÜÜÜÜÜÜÜÜÜÜÜÜÜÜÜÜÜÜÜÜÜÜÜÜÜÜÜÜÜÜÜÜÜÜÜÜÜÜÜÜÜ

Û°°°°°°°°°°°°°°°°°°°°°°°°Û
ÛÛ Sound Info ÛÛ
Û°°°°°°°°°°°°°°°°°°°°°°°°Û

Format : MPEG Audio
Format version : Version 1
Format profile : Layer 3
Codec ID : 55
Codec ID/Hint : MP3
Duration : 1h 47mn
Bit rate mode : Variable
Bit rate : 127 Kbps
Nominal bit rate : 128 Kbps
Channel(s) : 2 channels
Sampling rate : 48.0 KHz
Resolution : 16 bits
Stream size : 97.2 MiB (14%)
Alignment : Aligned on interleaves
Interleave, duration : 24 ms (0.58 video frame)
Interleave, preload duration : 145 ms
Writing library : LAME3.90.
Encoding settings : ABR
ÜÜÜÜÜÜÜÜÜÜÜÜÜÜÜÜÜÜÜÜÜÜÜÜÜÜÜÜÜÜÜÜÜÜÜÜÜÜÜÜÜÜÜÜÜÜÜÜÜÜÜÜÜÜÜÜÜÜÜÜÜÜÜÜÜÜÜÜÜÜ

Û°°°°°°°°°°°°°°°°°°°°°°°°Û
ÛÛ Plot ÛÛ
Û°°°°°°°°°°°°°°°°°°°°°°°°Û

From director Damien Wayans comes this outrageous
send-up of the inspirational dance movie, a film he
also co-wrote with his uncles Shawn, Keenan Ivory,
Marlon and Craig Wayans. Although she gave up dancing
after a tragic accident, suburban white girl Megan
(Shoshana Bush) takes it up again after moving to
the inner city. Coached by tough guy Thomas (Damon
Wayans Jr.), Megan learns some new moves -- and how
to believe in herself again.

Starring: Chelsea Makela, Damon Wayans Jr.

Director: Damien Wayans
ÜÜÜÜÜÜÜÜÜÜÜÜÜÜÜÜÜÜÜÜÜÜÜÜÜÜÜÜÜÜÜÜÜÜÜÜÜÜÜÜÜÜÜÜÜÜÜÜÜÜÜÜÜÜÜÜÜÜÜÜÜÜÜÜÜÜÜÜÜÜ

related torrents

Torrent name

health leech seeds Size
 


comments (0)

Main Menu