Drama

Thelma and Louise (1991) Susan Sarandon (Eng+Opt MULTISUBS) Kuth

  • Download 5x Faster
  • Download torrent
  • Direct Download
  • Rate this torrent +  |  -
Thelma and Louise (1991) Susan Sarandon (Eng+Opt MULTISUBS) Kuth

Free and Direct Download with Usenet.nl 300GB+ free


Torrent info

Name:Thelma and Louise (1991) Susan Sarandon (Eng+Opt MULTISUBS) Kuth

Total Size: 715.94 MB

Magnet: Magnet Link

Seeds: 0

Leechers: 0

Stream: Watch Online @ Movie4u

Last Updated: 0000-00-00 00:00:00 (Update Now)

Torrent added: 2009-08-25 09:34:49





Torrent Files List


AA-Sample (Size: 715.94 MB) (Files: 16)

 AA-Sample

  AA-Sample-Thelma & Louise (1991)_Kuth.avi

9.68 MB

 Info about this release.txt

4.90 KB

 Thelma & Louise (1991) Susan Sarandon (Optional MULTISUBS)_Kuth.avi

695.01 MB

 ZZ_Optional subtitles

  Danish.rar

923.89 KB

  Dutch.rar

963.20 KB

  English for the hearing impaired.rar

1.10 MB

  English.rar

946.91 KB

  Finnish.rar

916.37 KB

  French.rar

951.09 KB

  German.rar

1.00 MB

  Italian.rar

905.03 KB

  Norwegian.rar

894.11 KB

  Notes on subtitle files and burning of discs.txt

2.26 KB

  Portuguese.rar

949.01 KB

  Spanish.rar

980.60 KB

  Swedish.rar

936.31 KB
 

Announce URL:

Torrent description

http://www.imdb.com/title/tt0103074/

a.k.a.
Thelma & Louise (1991)

With: Geena Davis, Brad Pitt, Michael Madsen and Harvey Keitel.

Optional subtitles in separate idx/sub files: (Work in Windows Media Player etc.): Danish, Dutch, English for the hearing impaired, English (normal), Finnish, French, German, Italian, Norwegian, Portuguese, Spanish, Swedish.

This Oscar-winning, classic road trip may be regarded as the ultimate journey to women's liberation. Also known as the breakthrough for Brad Pitt (then 26) playing the sexy hustler.

Great soundtrack: Be prepared for a reencounter with "The Ballad Of Lucy Jordan" sung by Marianne Faithfull (starts 1h27m), and "Part Of You, Part Of Me" with Glenn Frey (end texts). Note that English subtitles for the hearing impaired displays text (in English) for all songs.
Soundtrack listing at http://www.imdb.com/title/tt0103074/soundtrack

Widescreen DVDrip XviD 2-pass 704x288, great stereo sound AC3.
Runs well in both my standalone DivX players.

MediaInfo analysis:
Format/Info : Audio Video Interleave
File size : 695 MiB
Duration : 2h 4mn
Overal bit rate : 783 Kbps

Video
Format : MPEG-4 Visual
Format profile : Streaming [email protected]
Format settings, BVOP : Yes
Format settings, QPel : No
Format settings, GMC : No warppoints
Format settings, Matrix : Default
Muxing mode : Packet Bitstream
Codec ID : XVID
Codec ID/Hint : XviD
Duration : 2h 4mn
Bit rate : 645 Kbps
Width : 704 pixels
Height : 288 pixels
Display aspect ratio : 2.444
Frame rate : 25.000 fps
Resolution : 8 bits
Colorimetry : 4:2:0
Scan type : Progressive
Bits/(Pixel*Frame) : 0.127
Stream size : 573 MiB
Writing library : XviD 1.2.0.dev47 (UTC 2006-11-01)

Audio
Format : MPEG Audio
Format version : Version 1
Format profile : Layer 3
Codec ID : 55
Codec ID/Hint : MP3
Duration : 2h 4mn
Bit rate mode : Constant
Bit rate : 128 Kbps
Minimum bit rate : 128 Kbps
Channel(s) : 2 channels
Sampling rate : 48.0 KHz
Resolution : 16 bits
Stream size : 114 MiB
Writing library : LAME3.97
Encoding settings : CBR

Source: PAL native 6.8 GiB

See my original presentation at http://thepiratebay.org/user/Kuthumi/

related torrents

Torrent name

health leech seeds Size
 

comments (0)

Main Menu