Action

Creature From The Black Lagoon (1954) DVDRip By KooKoo h33t

  • Download 5x Faster
  • Download torrent
  • Direct Download
  • Rate this torrent +  |  -

Torrent info

Name:Creature From The Black Lagoon (1954) DVDRip By KooKoo h33t

Total Size: 863.70 MB

Magnet: Magnet Link

Seeds: 0

Leechers: 0

Stream: Watch Full Movie @ Movie4u

Last Updated: 2016-02-13 05:49:53 (Update Now)

Torrent added: 2008-06-30 15:36:24



VPN For Torrents

Torrent Files List


Creature From The Black Lagoon (1954) [DVDRip] By [KooKoo] [h33t].avi (Size: 863.70 MB) (Files: 8)

 Creature From The Black Lagoon (1954) [DVDRip] By [KooKoo] [h33t].avi

841.81 MB

 KooKoo.txt

13.08 KB

 MoviePoster

  PF_1850002~Creature-from-the-Black-Lagoon-Posters.jpg

63.77 KB

 Sample

  sample.avi

14.84 MB

 Screenshots

  thumbs20080531055932.jpg

322.87 KB

 Subtitles

  Creature From The Black Lagoon (1954) [DVDRip] By [KooKoo] [h33t].idx

85.63 KB

  Creature From The Black Lagoon (1954) [DVDRip] By [KooKoo] [h33t].sub

6.58 MB

 tracked_by_h33t_com.txt

0.02 KB
 

tracker

leech seeds
 

Torrent description




A scientific expedition searching for fossils along the Amazon River discover a
prehistoric Gill-Man in the legendary Black Lagoon. The explorers capture the
mysterious creature, but it breaks free. The Gill-Man returns to kidnap the lovely Kay,
fiancée of one of the expedition, with whom it has fallen in love.
_______________________________________________
IMDB URL: http://www.imdb.com/title/tt0046876/

________________________________________________________________________________________________________________________
DVD source Information:

Universal Studios ~ NR ~ 241mins. ~ Release Date: 10/19/2004 ~

http://www.dvdempire.com/Exec/v4_item.asp?userid=99366340012357&item_id=618270&searchID=261514
_________________________________________________________________________________________________________________________


_________________________________________________________________________________________________________________________

File Verified With MediaInfo:
-----------------------------------------------------------------------------------------------------------------------------
General
Complete name: Creature From The Black Lagoon (1954) [DVDRip] By [KooKoo] [h33t].avi
Format: AVI
Format/Info: Audio Video Interleave
File size: 842 MiB
Duration: 1h 19mn
Overal bit rate: 1485 Kbps
Movie name: Creature From The Black Lagoon (1954)
Director: Ripped By KooKoo
Writing application: Lavf51.19.0
Product: DVD_VOLUME

Video
Format: MPEG-4 Visual
Format profile: [email protected]
Format settings, BVOP: No
Format settings, QPel: No
Format settings, GMC: No warppoints
Format settings, Matrix: Default
Codec ID: XVID
Codec ID/Hint: XviD
Duration: 1h 19mn
Bit rate: 1345 Kbps
Width: 608 pixels
Height: 464 pixels
Display aspect ratio: 4/3
Frame rate: 23.976 fps
Resolution: 8 bits
Colorimetry: 4:2:0
Scan type: Progressive
Bits/(Pixel*Frame): 0.199
Stream size: 762 MiB
Writing library: XviD 1.1.2 (UTC 2006-11-01)

Audio
Format: MPEG Audio
Format version: Version 1
Format profile: Layer 3
Codec ID: 55
Codec ID/Hint: MP3
Duration: 1h 19mn
Bit rate mode: Constant
Bit rate: 128 Kbps
Channel(s): 2 channels
Sampling rate: 48.0 KHz
Resolution: 16 bits
Stream size: 72.5 MiB
Writing library: LAME3.97


This Film is in English.
This Film contains English, Spanish, and French subtitles[size=xx-large]

related torrents

Torrent name

health leech seeds Size
 


comments (0)

Main Menu

 

script data-cfasync="false" src="//d2ghscazvn398x.cloudfront.net/?cshgd=690275">