Creature From The Black Lagoon (1954) DVDRip By KooKoo h33t

  • Download 5x Faster
  • Download torrent
  • Direct Download
  • Rate this torrent +  |  -
Creature From The Black Lagoon (1954) DVDRip By KooKoo h33t

Free and Direct Download with 300GB+ free

Torrent info

Name:Creature From The Black Lagoon (1954) DVDRip By KooKoo h33t

Total Size: 863.70 MB

Magnet: Magnet Link

Seeds: 0

Leechers: 0

Stream: Watch Online @ Movie4u

Last Updated: 2016-02-13 05:49:53 (Update Now)

Torrent added: 2008-06-30 15:36:24

Torrent Files List

Creature From The Black Lagoon (1954) [DVDRip] By [KooKoo] [h33t].avi (Size: 863.70 MB) (Files: 8)

 Creature From The Black Lagoon (1954) [DVDRip] By [KooKoo] [h33t].avi

841.81 MB


13.08 KB



63.77 KB



14.84 MB



322.87 KB


  Creature From The Black Lagoon (1954) [DVDRip] By [KooKoo] [h33t].idx

85.63 KB

  Creature From The Black Lagoon (1954) [DVDRip] By [KooKoo] [h33t].sub

6.58 MB


0.02 KB


leech seeds

Torrent description

A scientific expedition searching for fossils along the Amazon River discover a
prehistoric Gill-Man in the legendary Black Lagoon. The explorers capture the
mysterious creature, but it breaks free. The Gill-Man returns to kidnap the lovely Kay,
fiancée of one of the expedition, with whom it has fallen in love.

DVD source Information:

Universal Studios ~ NR ~ 241mins. ~ Release Date: 10/19/2004 ~


File Verified With MediaInfo:
Complete name: Creature From The Black Lagoon (1954) [DVDRip] By [KooKoo] [h33t].avi
Format: AVI
Format/Info: Audio Video Interleave
File size: 842 MiB
Duration: 1h 19mn
Overal bit rate: 1485 Kbps
Movie name: Creature From The Black Lagoon (1954)
Director: Ripped By KooKoo
Writing application: Lavf51.19.0

Format: MPEG-4 Visual
Format profile: [email protected]
Format settings, BVOP: No
Format settings, QPel: No
Format settings, GMC: No warppoints
Format settings, Matrix: Default
Codec ID: XVID
Codec ID/Hint: XviD
Duration: 1h 19mn
Bit rate: 1345 Kbps
Width: 608 pixels
Height: 464 pixels
Display aspect ratio: 4/3
Frame rate: 23.976 fps
Resolution: 8 bits
Colorimetry: 4:2:0
Scan type: Progressive
Bits/(Pixel*Frame): 0.199
Stream size: 762 MiB
Writing library: XviD 1.1.2 (UTC 2006-11-01)

Format: MPEG Audio
Format version: Version 1
Format profile: Layer 3
Codec ID: 55
Codec ID/Hint: MP3
Duration: 1h 19mn
Bit rate mode: Constant
Bit rate: 128 Kbps
Channel(s): 2 channels
Sampling rate: 48.0 KHz
Resolution: 16 bits
Stream size: 72.5 MiB
Writing library: LAME3.97

This Film is in English.
This Film contains English, Spanish, and French subtitles[size=xx-large]

related torrents

Torrent name

health leech seeds Size

comments (0)

Main Menu