Sports related

090205 NBA Lakers at Celtics

  • Download 5x Faster
  • Download torrent
  • Direct Download
  • Rate this torrent +  |  -
090205 NBA Lakers at Celtics

Anonymous and Direct Download 300GB+ free


Torrent info

Name:090205 NBA Lakers at Celtics

Total Size: 1.50 GB

Magnet: Magnet Link

Seeds: 0

Leechers: 0

Stream: Watch Online @ Movie4u

Last Updated: 2010-01-11 10:39:01 (Update Now)

Torrent added: 2009-08-25 06:57:38




Torrent Files List


090205_NBA_Lakers_at_Celtics_half1.avi (Size: 1.50 GB) (Files: 2)

 090205_NBA_Lakers_at_Celtics_half1.avi

636.75 MB

 090205_NBA_Lakers_at_Celtics_half2.avi

894.15 MB
 

Announce URL: http://sparksden.org/announce.php?passkey=b777edb6b93689d1d99e1183d4c3a523

Torrent description

Language: English
Ripper: chr1s
Video: .
Audio: .
Description:
General
Complete name : M:NBA2008-2009?90205_NBA_Lakers_at_Celtics?90205_NBA_Lakers_at_Celtics_half1.avi
Format : AVI
Format/Info : Audio Video Interleave
File size : 637 MiB
Duration : 48mn 51s
Overall bit rate : 1 822 Kbps

Video
Format : MPEG-4 Visual
Format profile : Streaming [email protected]
Format settings, BVOP : Yes
Format settings, QPel : No
Format settings, GMC : No warppoints
Format settings, Matrix : Default
Codec ID : XVID
Codec ID/Hint : XviD
Duration : 48mn 51s
Bit rate : 1 363 Kbps
Width : 720 pixels
Height : 400 pixels
Display aspect ratio : 16/9
Frame rate : 29.970 fps
Resolution : 24 bits
Colorimetry : 4:2:0
Scan type : Progressive
Bits/(Pixel*Frame) : 0.158
Stream size : 476 MiB (75%)
Writing library : XviD 1.1.2 (UTC 2006-11-01)

Audio
Format : AC-3
Format/Info : Audio Coding 3
Codec ID : 2000
Bit rate mode : Constant
Bit rate : 448 Kbps
Channel(s) : 6 channels
Channel positions : Front: L C R, Surround: L R, LFE
Sampling rate : 48.0 KHz
Stream size : 157 MiB (25%)
Alignment : Aligned on interleaves
Interleave, duration : 33 ms (1.00 video frame)

General
Complete name : M:NBA2008-2009?90205_NBA_Lakers_at_Celtics?90205_NBA_Lakers_at_Celtics_half2.avi
Format : AVI
Format/Info : Audio Video Interleave
File size : 894 MiB
Duration : 1h 10mn
Overall bit rate : 1 769 Kbps

Video
Format : MPEG-4 Visual
Format profile : Streaming [email protected]
Format settings, BVOP : Yes
Format settings, QPel : No
Format settings, GMC : No warppoints
Format settings, Matrix : Default
Codec ID : XVID
Codec ID/Hint : XviD
Duration : 1h 10mn
Bit rate : 1 313 Kbps
Width : 720 pixels
Height : 400 pixels
Display aspect ratio : 16/9
Frame rate : 29.970 fps
Resolution : 24 bits
Colorimetry : 4:2:0
Scan type : Progressive
Bits/(Pixel*Frame) : 0.152
Stream size : 664 MiB (74%)
Writing library : XviD 1.1.2 (UTC 2006-11-01)

Audio
Format : AC-3
Format/Info : Audio Coding 3
Codec ID : 2000
Duration : 1h 10mn
Bit rate mode : Constant
Bit rate : 448 Kbps
Channel(s) : 6 channels
Channel positions : Front: L C R, Surround: L R, LFE
Sampling rate : 48.0 KHz
Stream size : 225 MiB (25%)
Alignment : Aligned on interleaves
Interleave, duration : 34 ms (1.01 video frame)

related torrents

Torrent name

health leech seeds Size
 


comments (0)

Main Menu