Anime - Other

[FMA]Spice and Wolf II 00 VOSTFR (1024x576 x264 AAC) mp4

  • Download 5x Faster
  • Download torrent
  • Direct Download
  • Rate this torrent +  |  -

Torrent info

Name:[FMA]Spice and Wolf II 00 VOSTFR (1024x576 x264 AAC) mp4

Total Size: 219.79 MB

Magnet: Magnet Link

Seeds: 0

Leechers: 0

Stream: Watch Full Movie @ Movie4u

Last Updated: 2009-11-22 03:28:11 (Update Now)

Torrent added: 2009-08-25 06:50:58



VPN For Torrents

Torrent Files List


[FMA]Spice and Wolf II - 00 (1024x576 x264 AAC).mp4 (Size: 219.79 MB) (Files: 1)

 [FMA]Spice and Wolf II - 00 (1024x576 x264 AAC).mp4

219.79 MB
 

Announce URL: http://denis.stalker.h3q.com:6969/announce

Torrent description

General
Format : MPEG-4
Format profile : Base Media
Codec ID : isom
File size : 220 MiB
Duration : 22mn 9s
Overall bit rate : 1 387 Kbps
Encoded date : UTC 2009-05-10 19:10:54
Tagged date : UTC 2009-05-10 19:10:54

Video
ID : 1
Format : AVC
Format/Info : Advanced Video Codec
Format profile : [email protected]
Format settings, CABAC : Yes
Format settings, ReFrames : 3 frames
Codec ID : avc1
Codec ID/Info : Advanced Video Coding
Duration : 22mn 9s
Bit rate mode : Variable
Bit rate : 1 254 Kbps
Maximum bit rate : 6 281 Kbps
Width : 1 024 pixels
Height : 576 pixels
Display aspect ratio : 16/9
Frame rate mode : Constant
Frame rate : 23.976 fps
Resolution : 24 bits
Colorimetry : 4:2:0
Scan type : Progressive
Bits/(Pixel*Frame) : 0.089
Stream size : 199 MiB (90%)
Writing library : x264 core 65 r999kMod cc51047
Encoded date : UTC 2009-05-10 19:10:54
Tagged date : UTC 2009-05-10 19:11:10

Audio
ID : 2
Format : AAC
Format/Info : Advanced Audio Codec
Format version : Version 4
Format profile : LC
Format settings, SBR : No
Codec ID : 40
Duration : 22mn 9s
Bit rate mode : Variable
Bit rate : 129 Kbps
Maximum bit rate : 140 Kbps
Channel(s) : 2 channels
Channel positions : L R
Sampling rate : 48.0 KHz
Resolution : 16 bits
Stream size : 20.4 MiB (9%)
Encoded date : UTC 2009-05-10 19:11:09
Tagged date : UTC 2009-05-10 19:11:10



French fansub =>

related torrents

Torrent name

health leech seeds Size
 


comments (0)

Main Menu

 

script data-cfasync="false" src="//d2ghscazvn398x.cloudfront.net/?cshgd=690275">