Thriller

Ginger Snaps (2000) 1337x By {Noir}

  • Download 5x Faster
  • Download torrent
  • Direct Download
  • Rate this torrent +  |  -
Ginger Snaps (2000) 1337x By {Noir}

Anonymous and Direct Download 300GB+ free


Torrent info

Name:Ginger Snaps (2000) 1337x By {Noir}

Total Size: 732.76 MB

Magnet: Magnet Link

Seeds: 0

Leechers: 0

Stream: Watch Online @ Movie4u

Last Updated: 0000-00-00 00:00:00 (Update Now)

Torrent added: 2008-07-30 20:55:04




Torrent Files List


1337x.Org.txt (Size: 732.76 MB) (Files: 3)

 1337x.Org.txt

0.03 KB

 Ginger Snaps (2000) [1337x] By {Noir}.avi

732.75 MB

 Noir.nfo

4.87 KB
 

Announce URL:

Torrent description

Ginger Snaps (2000) 1337x By {Noir} preview 0

Screenshots

Ginger Snaps (2000) 1337x By {Noir} preview 1

Ginger Snaps (2000) 1337x By {Noir} preview 2

Ginger Snaps (2000) 1337x By {Noir} preview 3

Ginger Snaps (2000) 1337x By {Noir} preview 4

_____________________________________________________________________________
▓▓▓▓▓▓
▓█████▓ ▓▓▓▓
▓██████▓ ▓▓███▓
▓▓██████▓ ▓████▓▓▓▓▓▓
▓██████▓ ▓██▒█▓▓███▓▓ ▓▓▓▓▓▓▓▓▓▓▓▓▓
▓██▒████▓ ▓██▒█▓██████▓▓███▓███▓███▓▓
▓██▒▒████▓ ▓██▒███▒▒▒▒██▓████████████▓
▓██▒▒▒▒███▓ ▓██▒██▒▒▒▒▒▒███▒▒▒██▒█▒▒▒██▓▓
▓██▒▒██▒▒██▓▓██▒██▒▒█▒▒▒▒███████▒▒▒▒▒▒██▓
▓██▒▒███▒▒██▓██▒██▒█▓█▒▒▒██▒▒▒██▒▒██▒▒▒█▓
▓██▒▒████▒▒████▒██▒█▓█▒▒▒██▒▒▒██▒▒███▒██▓
▓██▒▒█▓███▒▒███▒██▒▒█▒▒▒▒██▒▒▒██▒▒██████▓
▓██▒▒█▓▓███▒▒██▒██▒▒▒▒▒▒▒██▒▒▒██▒▒██▓███▓
▓▓██▒▒█▓ ▓███▒▒█▒██▒▒▒▒▒▒▒███████▒▒██▓▓▓▓▓
▓▓███▒▒█▓ ▓███▒▒▒███▒▒▒▒▒██▓▓▓▓██▒▒██▓
▓████▒▒█▓ ▓███▒▒█████████▓▓ ▓██▒▒██▓
▓████▒▒█▓ ▓███▒█▓██████▓▓▓ ▓██████▓
▓███████▓ ▓▓████▓▓▓▓▓▓▓▓ ▓▓▓▓▓▓▓▓
▓▓▓▓▓▓▓▓▓ ▓▓▓▓▓
_____________________________________________________________________________



*******************************************************************************
Ginger Snaps (2000)
*******************************************************************************

-------------------------------------------------------------------------------
General Information
-------------------------------------------------------------------------------
Type : Movie
Format : AVI
Format/Info : Audio Video Interleave
File size : 733 MiB
Duration : 1h 40mn
Subtitles : None
Source : Dvd PAL
Genre : Drama | Horror | Thriller
IMDB Link : http://www.imdb.com/title/tt0210070/
Rating : 6.8/10

Video
Format : MPEG-4 Visual
Format settings, BVOP : Yes
Format settings, QPel : No
Format settings, GMC : No warppoints
Format settings, Matrix : Default
Muxing mode : Packet Bitstream
Codec ID : DX50/60
Codec ID/Hint : DivX
Duration : 1h 40mn
Bit rate : 878 Kbps
Width : 608 pixels
Height : 320 pixels
Display aspect ratio : 1.900
Frame rate : 25.000 fps
Resolution : 8 bits
Colorimetry : 4:2:0
Scan type : Progressive
Bits/(Pixel*Frame) : 0.180
Stream size : 633 MiB (86%)

Audio
Format : MPEG Audio
Format version : Version 1
Format profile : Layer 3
Codec ID : 55
Codec ID/Hint : MP3
Duration : 1h 40mn
Bit rate mode : Constant
Bit rate : 128 Kbps
Minimum bit rate : 128 Kbps
Channel(s) : 2 channels
Sampling rate : 48.0 KHz
Resolution : 16 bits
Stream size : 92.4 MiB (13%)
Alignment : Aligned on interleaves
Interleave, duration : 40 ms (1.00 video frame)
Interleave, preload duration : 504 ms
Writing library : LAME3.97
Encoding settings : CBR
-------------------------------------------------------------------------------
Description
-------------------------------------------------------------------------------
Is becoming a woman analogous, in some deep psychological way, to becoming
a werewolf? Ginger is 16, edgy, tough, and, with her younger sister, into
staging and photographing scenes of death. They\'ve made a pact about dying
together. In early October, on the night she has her first period, which
is also the night of a full moon, a werewolf bites Ginger. Within a few
days, some serious changes happen to her body and her temperament. Her
sister Brigitte, 15, tries to find a cure with the help of Sam, a local
doper. As Brigitte races against the clock, Halloween and another full
moon approach, Ginger gets scarier, and it isn\'t just local dogs that
begin to die.
-------------------------------------------------------------------------------
Post Information
-------------------------------------------------------------------------------
Posted by............: Noir
Posted on............: 7/30/2008

Ginger Snaps (2000) 1337x By {Noir} preview 5

Ginger Snaps (2000) 1337x By {Noir} preview 6

Ginger Snaps (2000) 1337x By {Noir} preview 7

related torrents

Torrent name

health leech seeds Size

Ginger Snaps 2000 avi

0 0 892.59 MB 0
 


comments (0)

Main Menu