Other

Scare Tactics Season 1 Xvid [

  • Download 5x Faster
  • Download torrent
  • Direct Download
  • Rate this torrent +  |  -
Scare Tactics Season 1 Xvid [

Free and Direct Download with Usenet.nl 300GB+ free


Torrent info

Name:Scare Tactics Season 1 Xvid [

Total Size: 3.77 GB

Magnet: Magnet Link

Seeds: 0

Leechers: 0

Stream: Watch Online @ Movie4u

Last Updated: 2010-08-13 12:01:27 (Update Now)

Torrent added: 2009-08-25 03:51:59





Torrent Files List


Season 1.nfo (Size: 3.77 GB) (Files: 83)

 Season 1.nfo

47.41 KB

 Season 1.r00

47.68 MB

 Season 1.r01

47.68 MB

 Season 1.r02

47.68 MB

 Season 1.r03

47.68 MB

 Season 1.r04

47.68 MB

 Season 1.r05

47.68 MB

 Season 1.r06

47.68 MB

 Season 1.r07

47.68 MB

 Season 1.r08

47.68 MB

 Season 1.r09

47.68 MB

 Season 1.r10

47.68 MB

 Season 1.r11

47.68 MB

 Season 1.r12

47.68 MB

 Season 1.r13

47.68 MB

 Season 1.r14

47.68 MB

 Season 1.r15

47.68 MB

 Season 1.r16

47.68 MB

 Season 1.r17

47.68 MB

 Season 1.r18

47.68 MB

 Season 1.r19

47.68 MB

 Season 1.r20

47.68 MB

 Season 1.r21

47.68 MB

 Season 1.r22

47.68 MB

 Season 1.r23

47.68 MB

 Season 1.r24

47.68 MB

 Season 1.r25

47.68 MB

 Season 1.r26

47.68 MB

 Season 1.r27

47.68 MB

 Season 1.r28

47.68 MB

 Season 1.r29

47.68 MB

 Season 1.r30

47.68 MB

 Season 1.r31

47.68 MB

 Season 1.r32

47.68 MB

 Season 1.r33

47.68 MB

 Season 1.r34

47.68 MB

 Season 1.r35

47.68 MB

 Season 1.r36

47.68 MB

 Season 1.r37

47.68 MB

 Season 1.r38

47.68 MB

 Season 1.r39

47.68 MB

 Season 1.r40

47.68 MB

 Season 1.r41

47.68 MB

 Season 1.r42

47.68 MB

 Season 1.r43

47.68 MB

 Season 1.r44

47.68 MB

 Season 1.r45

47.68 MB

 Season 1.r46

47.68 MB

 Season 1.r47

47.68 MB

 Season 1.r48

47.68 MB

 Season 1.r49

47.68 MB

 Season 1.r50

47.68 MB

 Season 1.r51

47.68 MB

 Season 1.r52

47.68 MB

 Season 1.r53

47.68 MB

 Season 1.r54

47.68 MB

 Season 1.r55

47.68 MB

 Season 1.r56

47.68 MB

 Season 1.r57

47.68 MB

 Season 1.r58

47.68 MB

 Season 1.r59

47.68 MB

 Season 1.r60

47.68 MB

 Season 1.r61

47.68 MB

 Season 1.r62

47.68 MB

 Season 1.r63

47.68 MB

 Season 1.r64

47.68 MB

 Season 1.r65

47.68 MB

 Season 1.r66

47.68 MB

 Season 1.r67

47.68 MB

 Season 1.r68

47.68 MB

 Season 1.r69

47.68 MB

 Season 1.r70

47.68 MB

 Season 1.r71

47.68 MB

 Season 1.r72

47.68 MB

 Season 1.r73

47.68 MB

 Season 1.r74

47.68 MB

 Season 1.r75

47.68 MB

 Season 1.r76

47.68 MB

 Season 1.r77

47.68 MB

 Season 1.r78

47.68 MB

 Season 1.r79

40.88 MB

 Season 1.rar

47.68 MB

 Season 1.sfv

5.93 KB
 

Announce URL: http://tracker.ilovetorrents.com/announce.php

Torrent description

Scare Tactics is a hidden camera show that puts unsuspecting victims into
terrifying situations, usually involving movie-style special effects
and makeup that recreates horror movie clich s. The victims,
generally four per episode, are set up by friends/family in tandem
with producers.


101 - UFO Abduction, Firing Range, Buried Alive, Camp Kill
102 - Bigfoot Attacks, Where's Shannen?, Flatline, Psycho Hitchhiker
103 - Limo in Area 51, Monster in the Closet, Organ Harvest, Disappearing Stripper
104 - Clone Attack, Repo Man, Orgy from Hell, Monkey Trouble
105 - Meteor Man, Barbershop of Blood, Date with the Devil, Taxi Cab Carnage
106 - Lab Spill, Haunted Babysitter, Serial Killer, Hellride
107 - Tanning Salon Terror, Cable Killers, Little Girl Psychic, Runaway Corpse
108 - Ghost Train, Body in Trunk, Dominatrix for a Day, Desert Monster
109 - UFO Trailer Attack, The Cannibal Family, S ance from Hell, Driving the Dead
110 - Harsh Reality, Dr. Werewolf, Boy in a Bubble, Virgin Sacrifice
111 - Chupacabra Attack, Deadly Secret, Lights Out, Black Magic
112 - Hazmat Hell, Surgery Nightmare, Death Lunch, Bad Seed
113 - Laboratory Meltdown, Eye Witness, Unborn Clones, Silo Scare
114 - Deadly Feast, Fear in the Box, Fear Antics: Psycho, Maniac Cop
115 - Killer Clown, Lethal Conversation, Caught on Camera, Demonic Duel
116 - Chainsaw Attack, Beastly Breakout, Deadly Hicks, Alien Returns
117 - Dangerous Obsession, Web of Evil, Laboratory of Blood, Repo from Hell
118 - Security Breach, Taste for Blood, Zombie Grandma, Killer Car
119 - Bad Medicine, Killer Queen, Dead Alive, Alien Hunters
120 - Massacre Under the House, Unholy Ground, Video Victim, Mask of Death
121 - Lethal Touch, Showgirl's Revenge, Terror Next Door, Bigfoot Returns
122 - Home Invasion, Demonic Possession, Fatal Beauty, The Hunted,


Video
Format : MPEG-4 Visual
Format profile : Streaming [email protected]
Format settings, BVOP : No
Format settings, QPel : Yes
Format settings, GMC : No warppoints
Format settings, Matrix : Default
Codec ID : XVID
Codec ID/Hint : XviD
Duration : 21mn 1s
Bit rate : 1 014 Kbps
Width : 512 pixels
Height : 384 pixels
Display aspect ratio : 4/3
Frame rate : 25.000 fps
Resolution : 24 bits
Colorimetry : 4:2:0
Scan type : Progressive
Bits/(Pixel*Frame) : 0.206
Stream size : 152 MiB (87%)
Writing library : XviD 1.1.0 Beta2 (UTC 2005-04-04)

Audio
Format : MPEG Audio
Format version : Version 1
Format profile : Layer 3
Codec ID : 55
Codec ID/Hint : MP3
Duration : 21mn 1s
Bit rate mode : Variable
Bit rate : 140 Kbps
Minimum bit rate : 112 Kbps
Channel(s) : 2 channels
Sampling rate : 48.0 KHz
Resolution : 16 bits
Stream size : 21.0 MiB (12%)
Alignment : Aligned on interleaves
Interleave, duration : 24 ms (0.60 video frame)
Interleave, preload duration : 348 ms
Writing library : LAME3.93
Encoding settings : VBR (mtrh)

related torrents

Torrent name

health leech seeds Size
 

comments (0)

Main Menu