Anime - Other

Zaion I wish you were here

  • Download 5x Faster
  • Download torrent
  • Direct Download
  • Rate this torrent +  |  -
Zaion I wish you were here

Free and Direct Download with Usenet.nl 300GB+ free


Torrent info

Name:Zaion I wish you were here

Total Size: 694.67 MB

Magnet: Magnet Link

Seeds: 0

Leechers: 0

Stream: Watch Online @ Movie4u

Last Updated: 2010-04-08 14:15:09 (Update Now)

Torrent added: 2009-08-25 02:58:47





Torrent Files List


zaion.jpg (Size: 694.67 MB) (Files: 6)

 zaion.jpg

9.90 KB

 zaion.txt

7.70 KB

 Zaion_-_I_wish_you_were_here_-_OVA1_Begegnung.avi

174.62 MB

 Zaion_-_I_wish_you_were_here_-_OVA2_Abschied.avi

174.64 MB

 Zaion_-_I_wish_you_were_here_-_OVA3_Notiz.avi

173.08 MB

 Zaion_-_I_wish_you_were_here_-_OVA4_Anwesenheit.avi

172.31 MB
 

Announce URL: http://adbt.ath.cx/announce0000000000000000.php

Torrent description

Zaion - I wish you were here deutsch.sub 4/4

In der Zukunft schlägt ein Meteor auf die Erde und bringt einen gefährlichen Virus mit, welcher die Menschen zu brutalen Mutanten verändert. Um diese Mutanten und den Virus zu bekämpfen werden spezielle Soldaten, genannt NOA, eingesetzt. Diese Soldaten besitzen in ihren Körper Nano-Maschinen. Als jedoch die Mutanten zu stark werden, liegt das Schicksal der Menschheit in den Händen eines 16 Jahre alten Mädchens...


Episode 1:


Format : AVI
Format/Info : Audio Video Interleave
Dateigre : 175 MiB
Duration : 27min
Gesamte Bitrate : 892 Kbps
Verwendetes Programm : VirtualDubMod 1.5.4.1 (build 2066/release)
verwendete Encoder-Bibliothek : VirtualDubMod build 2066/release

Video
Format : MPEG-4 Visual
Format profile : [email protected]
Format settings, BVOP : Yes
Format settings, QPel : No
Format settings, GMC : 0 warppoint
Format settings, Matrix : Custom
Muxing mode : Packet Bitstream
Codec ID : DX50
Codec ID/Hint : DivX 5
Duration : 27min
Bitrate : 754 Kbps
Breite : 640 Pixel
Höhe : 360 Pixel
Bildseitenverhältnis : 16/9
Bildwiederholungsrate : 23.976 FPS
Auflösung : 8 bits
Colorimetry : 4:2:0
Scan type : Progressive
Bits/(Pixel*Frame) : 0.137
Stream size : 148 MiB
verwendete Encoder-Bibliothek : XviD0034C

Audio
Format : MPEG Audio
Format version : Version 1 / Layer 3
Codec ID : 55
Codec ID/Hint : MP3
Duration : 27min
Bitraten-Modus : CBR
Bitrate : 128 Kbps
Kanäle : 2 Kanäle
Samplingrate : 48.0 KHz
Auflösung : 16 bits
Stream size : 25.1 MiB



Episde 2:


Format : AVI
Format/Info : Audio Video Interleave
Dateigre : 175 MiB
Duration : 27min
Gesamte Bitrate : 885 Kbps
Verwendetes Programm : VirtualDubMod 1.5.4.1 (build 2066/release)
verwendete Encoder-Bibliothek : VirtualDubMod build 2066/release

Video
Format : MPEG-4 Visual
Format profile : [email protected]
Format settings, BVOP : Yes
Format settings, QPel : No
Format settings, GMC : 0 warppoint
Format settings, Matrix : Custom
Muxing mode : Packet Bitstream
Codec ID : DX50
Codec ID/Hint : DivX 5
Duration : 27min
Bitrate : 748 Kbps
Breite : 640 Pixel
Höhe : 360 Pixel
Bildseitenverhältnis : 16/9
Bildwiederholungsrate : 23.976 FPS
Auflösung : 8 bits
Colorimetry : 4:2:0
Scan type : Progressive
Bits/(Pixel*Frame) : 0.135
Stream size : 148 MiB
verwendete Encoder-Bibliothek : XviD0034C

Audio
Format : MPEG Audio
Format version : Version 1 / Layer 3
Codec ID : 55
Codec ID/Hint : MP3
Duration : 27min
Bitraten-Modus : CBR
Bitrate : 128 Kbps
Kanäle : 2 Kanäle
Samplingrate : 48.0 KHz
Auflösung : 16 bits
Stream size : 25.2 MiB




Episode 3:

Format : AVI
Format/Info : Audio Video Interleave
Dateigre : 173 MiB
Duration : 26min
Gesamte Bitrate : 909 Kbps
Verwendetes Programm : VirtualDubMod 1.5.4.1 (build 2066/release)
verwendete Encoder-Bibliothek : VirtualDubMod build 2066/release

Video
Format : MPEG-4 Visual
Format profile : [email protected]
Format settings, BVOP : Yes
Format settings, QPel : No
Format settings, GMC : 0 warppoint
Format settings, Matrix : Custom
Muxing mode : Packet Bitstream
Codec ID : DX50
Codec ID/Hint : DivX 5
Duration : 26min
Bitrate : 772 Kbps
Breite : 640 Pixel
Höhe : 360 Pixel
Bildseitenverhältnis : 16/9
Bildwiederholungsrate : 23.976 FPS
Auflösung : 8 bits
Colorimetry : 4:2:0
Scan type : Progressive
Bits/(Pixel*Frame) : 0.140
Stream size : 147 MiB
verwendete Encoder-Bibliothek : XviD0034C

Audio
Format : MPEG Audio
Format version : Version 1 / Layer 3
Codec ID : 55
Codec ID/Hint : MP3
Duration : 26min
Bitraten-Modus : CBR
Bitrate : 128 Kbps
Kanäle : 2 Kanäle
Samplingrate : 48.0 KHz
Auflösung : 16 bits
Stream size : 24.4 MiB



Episode 4:

Format : AVI
Format/Info : Audio Video Interleave
Dateigre : 172 MiB
Duration : 26min
Gesamte Bitrate : 915 Kbps
Verwendetes Programm : VirtualDubMod 1.5.4.1 (build 2066/release)
verwendete Encoder-Bibliothek : VirtualDubMod build 2066/release

Video
Format : MPEG-4 Visual
Format profile : [email protected]
Format settings, BVOP : Yes
Format settings, QPel : No
Format settings, GMC : 0 warppoint
Format settings, Matrix : Custom
Muxing mode : Packet Bitstream
Codec ID : DX50
Codec ID/Hint : DivX 5
Duration : 26min
Bitrate : 778 Kbps
Breite : 640 Pixel
Höhe : 360 Pixel
Bildseitenverhältnis : 16/9
Bildwiederholungsrate : 23.976 FPS
Auflösung : 8 bits
Colorimetry : 4:2:0
Scan type : Progressive
Bits/(Pixel*Frame) : 0.141
Stream size : 146 MiB
verwendete Encoder-Bibliothek : XviD0034C

Audio
Format : MPEG Audio
Format version : Version 1 / Layer 3
Codec ID : 55
Codec ID/Hint : MP3
Duration : 26min
Bitraten-Modus : CBR
Bitrate : 128 Kbps
Kanäle : 2 Kanäle
Samplingrate : 48.0 KHz
Auflösung : 16 bits
Stream size : 24.1 MiB

Viel Spass beim Schauen und nicht SEEDEN vergessen.



Audio: japanisch
Untertitel: deutsch

related torrents

Torrent name

health leech seeds Size
 

comments (0)

Main Menu