Anime - Other

SpongeBob Nautical Nonsense][Avi,sleeve ][Hectorbusinspector][H33t]

  • Download 5x Faster
  • Download torrent
  • Direct Download
  • Rate this torrent +  |  -

Torrent info

Name:SpongeBob Nautical Nonsense][Avi,sleeve ][Hectorbusinspector][H33t]

Total Size: 106.84 MB

Magnet: Magnet Link

Seeds: 2

Leechers: 1

Stream: Watch Online @ Movie4u

Last Updated: 2010-08-23 10:22:41 (Update Now)

Torrent added: 2009-08-25 01:05:48



VPN For Torrents

Torrent Files List


introduction to us, we are not pirates.txt (Size: 106.84 MB) (Files: 5)

 introduction to us, we are not pirates.txt

4.55 KB

 spongebob 001.jpg

412.44 KB

 SpongeBob.txt

4.76 KB

 TITLE05.avi

106.42 MB

 tracked_by_h33t_com.txt

0.02 KB
 

Announce URL: http://denis.stalker.h3q.com/announce

Torrent description


Nickelodeon's popular animated series SPONGEBOB SQUAREPANTS chronicles the wacky adventures of a goodhearted, enthusiastic sea sponge and his
nautical pals Squidward, Mr. Krabs, Patrick the Starfish, and Sandy the Squirrel in the underwater town of Bikini Bottom.
This collection continues the adventures of the
absorbent, yellow, and porous one with episodes from the NAUTICAL NONSENSE and SPONGE BUDDIES releases: "Jellyfishing,"
"Dying for Pie," "Wormy," "F.U.N.," "Club Spongebob," "Ripped Pants," "SB-129," "Texas," "The Graveyard Shift," and "Something Smells."**********
*************************************************************************************************************************************************
&&&&&&&&&&&&&&&&&&&&&&&&&&&&&&&&&&&&&&&&&&&&&&&&&&&&&&&&&&&&&&&&&&&&&&&&&&&&&&&&&&&&&&&&&&&&&&&&&&&&&&&&&&&&&&&&&&&&&&&&&&&&&&&&&&&&&&&&&&&&&&&&&
*************************************************************************************************************************************************
General
Complete name : SpongeBob Nautical Nonsense][Avi,sleeve.][Hectorbusinspector][H33t]TITLE05.avi
Format : AVI
Format/Info : Audio Video Interleave
File size : 106 MiB
Duration : 11mn 7s
Overall bit rate : 1 338 Kbps
&&&&&&&&&&&&&&&&&&&&&&&&&&&&&&&&&&&&&&&&&&&&&&&&&&&&&&&&&&&&&&&&&&&&&&&&&&&&&&&&&&&&&&&&&&&&&&&&&&&&&&&&&&&&&&&&&&&&&&&&&&&&&&&&&&&&&&&&&&&&&&&&&
Video
Format : MPEG-4 Visual
Format profile : [email protected]
Format settings, BVOP : No
Format settings, QPel : No
Format settings, GMC : No warppoints
Format settings, Matrix : Default (H.263)
Codec ID : XVID
Codec ID/Hint : XviD
Duration : 11mn 7s
Bit rate : 1 198 Kbps
Width : 640 pixels
Height : 480 pixels
Display aspect ratio : 4/3
Frame rate : 25.000 fps
Resolution : 24 bits
Colorimetry : 4:2:0
Scan type : Progressive
Bits/(Pixel*Frame) : 0.156
Stream size : 95.3 MiB (90%)
Writing library : Magic0432
&&&&&&&&&&&&&&&&&&&&&&&&&&&&&&&&&&&&&&&&&&&&&&&&&&&&&&&&&&&&&&&&&&&&&&&&&&&&&&&&&&&&&&&&&&&&&&&&&&&&&&&&&&&&&&&&&&&&&&&&&&&&&&&&&&&&&&&&&&&&&&&&&
Audio
Format : MPEG Audio
Format version : Version 1
Format profile : Layer 3
Codec ID : 55
Codec ID/Hint : MP3
Duration : 11mn 7s
Bit rate mode : Constant
Bit rate : 128 Kbps
Channel(s) : 2 channels
Sampling rate : 44.1 KHz
Resolution : 16 bits
Stream size : 10.2 MiB (10%)
Alignment : Aligned on interleaves
Interleave, duration : 26 ms (0.65 video frame)
&&&&&&&&&&&&&&&&&&&&&&&&&&&&&&&&&&&&&&&&&&&&&&&&&&&&&&&&&&&&&&&&&&&&&&&&&&&&&&&&&&&&&&&&&&&&&&&&&&&&&&&&&&&&&&&&&&&&&&&&&&&&&&&&&&&&&&&&&&&&&&&&&
*************************************************************************************************************************************************
Avi.*********************************************************************************************************************************************
Sleeve.******************************************************************************************************************************************

H33t.com*****************************************************************************************************************************************

Tell A Friend.***********************************************************************************************************************************
*************************************************************************************************************************************************
*************************************************************************************************************************************************
*************************************************************************************************************************************************
*************************************************************************************************************************************************
*************************************************************************************************************************************************Pictures and details http://AhaShare.com/torrents-details.php?id=15225

http://www.ahashare.com

related torrents

Torrent name

health leech seeds Size
 


comments (0)

Main Menu