Anime - Other

Seto no Hanayome(2007)XviD[Ayako & Your Mom]

  • Download 5x Faster
  • Download torrent
  • Direct Download
  • Rate this torrent +  |  -
Seto no Hanayome(2007)XviD[Ayako & Your Mom]

Anonymous and Free Direct Download 300GB+


Torrent info

Name:Seto no Hanayome(2007)XviD[Ayako & Your Mom]

Total Size: 4.70 GB

Magnet: Magnet Link

Seeds: 2

Leechers: 2

Stream: Watch Online @ Movie4u

Last Updated: 2011-04-15 22:42:32 (Update Now)

Torrent added: 2009-08-25 00:44:11



VPN For Torrents

Torrent Files List


Seto.no.Hanayome.01.[Ayako]XviD[005670F2].avi (Size: 4.70 GB) (Files: 26)

 Seto.no.Hanayome.01.[Ayako]XviD[005670F2].avi

190.47 MB

 Seto.no.Hanayome.02.[Ayako]XviD[377ADA22].avi

184.65 MB

 Seto.no.Hanayome.03.[Ayako]XviD[CB1CE6B9].avi

186.65 MB

 Seto.no.Hanayome.04.[Ayako]XviD[BFCEB247].avi

187.08 MB

 Seto.no.Hanayome.05.[Ayako]XviD[EBEB092A].avi

192.11 MB

 Seto.no.Hanayome.06.[Ayako]XviD[15FB0955].avi

190.81 MB

 Seto.no.Hanayome.07.[Ayako]XviD[BA9EF1BD].avi

190.94 MB

 Seto.no.Hanayome.08.[Ayako]XviD[C4B2D274].avi

193.41 MB

 Seto.no.Hanayome.09.[Ayako]XviD[B32FF35F].avi

190.30 MB

 Seto.no.Hanayome.10.[Ayako]XviD[12AB029E].avi

192.00 MB

 Seto.no.Hanayome.11v3.[Ayako]XviD[FBFAD586].avi

196.84 MB

 Seto.no.Hanayome.12v2.[Ayako]XviD[9656E11D].avi

195.52 MB

 Seto.no.Hanayome.13.[Ayako]XviD[B0DC07D8].avi

195.07 MB

 Seto.no.Hanayome.14.[Ayako]XviD[F563A32F].avi

204.24 MB

 Seto.no.Hanayome.15.[Ayako]XviD[16188E8B].avi

204.71 MB

 Seto.no.Hanayome.16.[Ayako]XviD[58DCF284].avi

206.04 MB

 Seto.no.Hanayome.17.[Your-Mom]XviD[D254C674].avi

128.71 MB

 Seto.no.Hanayome.18.[Your-Mom]XviD[3BE1E37C].mkv

174.10 MB

 Seto.no.Hanayome.19.[Your-Mom]XviD[0F8D6F0D].mkv

168.63 MB

 Seto.no.Hanayome.20.[Your-Mom]XviD[341E43FB].mkv

172.52 MB

 Seto.no.Hanayome.21.[Your-Mom]XviD[EAC2B100].mkv

175.61 MB

 Seto.no.Hanayome.22.[Your-Mom]XviD[813ABE14].mkv

174.25 MB

 Seto.no.Hanayome.23.[Your-Mom]XviD[241A9252].mkv

175.58 MB

 Seto.no.Hanayome.24.[Your-Mom]XviD[03FD485E].mkv

175.42 MB

 Seto.no.Hanayome.25.[Your-Mom]XviD[1D4489AD].mkv

181.92 MB

 Seto.no.Hanayome.26.[Your-Mom]XviD[27F263DE].mkv

187.37 MB
 

Announce URL: http://tracker.torrentbox.com:2710/announce

Torrent description

http://www.animenewsnetwork.com/encyclopedia/anime.php?id=7460
http://www.animenfo.com/animetitle,3927,gqhsyy,seto_no_hanayom.html
http://anidb.net/perl-bin/animedb.pl?show=anime&aid=4821
http://en.wikipedia.org/wiki/Seto_no_Hanayome



The Inland Sea Bride
Seto no Hanayome (2007)



Director : Seiji Kishi
Genres : action, comedy, romance, slice of life, supernatural
Themes : harem, mermaid, yakuza

Plot summary:
A young boy gets saved from drowning by a mermaid but,
according to mermaid law, if a human sees a mermaid's
true form, both have to be killed. The only solution
to the problem is for him to marry her. But can they
keep her secret from being found out.

-----------------------------------------------------------------------------------------------------------------

Media Info: [from MediaInfo v0.7.7.8]
General
Complete name : Seto.no.Hanayome.01.[Ayako]XviD[005670F2].avi
Format : AVI
Format/Info : Audio Video Interleave
File size : 190 MiB
Duration : 24mn 13s
Overall bit rate : 1 099 Kbps
Writing application : VirtualDubMod 1.5.10.2 (build 2540/release)
Writing library : VirtualDubMod build 2540/release

Video
Format : MPEG-4 Visual
Format profile : Streaming [email protected]
Format settings, BVOP : Yes
Format settings, QPel : No
Format settings, GMC : No warppoints
Format settings, Matrix : Default
Codec ID : XVID
Codec ID/Hint : XviD
Duration : 24mn 13s
Bit rate : 898 Kbps
Width : 1 024 pixels
Height : 576 pixels
Display aspect ratio : 16/9
Frame rate : 23.976 fps
Resolution : 24 bits
Colorimetry : 4:2:0
Scan type : Progressive
Bits/(Pixel*Frame) : 0.063
Stream size : 156 MiB (82%)
Writing library : XviD 1.2.0SMP (UTC 2006-01-08)

Audio
Format : AC-3
Format/Info : Audio Coding 3
Codec ID : 2000
Duration : 24mn 13s
Bit rate mode : Constant
Bit rate : 192 Kbps
Channel(s) : 2 channels
Channel positions : L R
Sampling rate : 48.0 KHz
Video delay : 3s 670ms
Stream size : 33.3 MiB (17%)
Alignment : Split accross interleaves
Interleave, duration : 42 ms (1.00 video frame)
Interleave, preload duration : 500 ms

-----------------------------------------------------------------------------------------------------------------

General
Complete name : Seto.no.Hanayome.18.[Your-Mom]XviD[3BE1E37C].mkv
Format : Matroska
File size : 174 MiB
Duration : 24mn 9s
Overall bit rate : 1 007 Kbps
Encoded date : UTC 2007-08-06 14:50:34
Writing application : mkvmerge v2.0.0 ('After The Rain Has Fallen') built on Jan 13 2007 19:58:56
Writing library : libebml v0.7.7 + libmatroska v0.8.0

Video
Format : MPEG-4 Visual
Format profile : Streaming [email protected]
Format settings, BVOP : Yes
Format settings, QPel : No
Format settings, GMC : No warppoints
Format settings, Matrix : Default
Codec ID : XVID
Codec ID/Hint : XviD
Duration : 24mn 8s
Bit rate : 766 Kbps
Width : 704 pixels
Height : 396 pixels
Display aspect ratio : 16/9
Frame rate : 23.976 fps
Resolution : 24 bits
Colorimetry : 4:2:0
Scan type : Progressive
Writing library : XviD 1.1.2 (UTC 2006-11-01)

Audio
Format : MPEG Audio
Format version : Version 1
Format profile : Layer 3
Codec ID : A_MPEG/L3
Codec ID/Hint : MP3
Duration : 24mn 9s
Bit rate mode : Constant
Bit rate : 192 Kbps
Channel(s) : 2 channels
Sampling rate : 48.0 KHz
Resolution : 16 bits
Writing library : LAME3.93

Text
Format : ASS
Codec ID : S_TEXT/ASS
Codec ID/Info : Advanced Sub Station Alpha

-----------------------------------------------------------------------------------------------------------------

CRC32: [Lupas Rename v5.0]

Codecs:
Download K-Lite Mega Codec Pack (http ://www.free-codecs.com/download/K_Lite_Mega_Codec_Pack.htm)

Media players:
Download Media Player Classic (http ://www.free-codecs.com/download/Media_Player_Classic.htm)
Download KMPlayer (http ://www.free-codecs.com/download/KMPlayer.htm)
Download Gom Player (http ://www.free-codecs.com/download/Gom_Player.htm)

List of episodes:
http://www.animenewsnetwork.com/encyclopedia/anime.php?id=7460&page=25
http://en.wikipedia.org/wiki/List_of_Seto_no_Hanayome_episodes#Episodes

Opening Theme:
http://www.youtube.com/watch?v=XlTsZ_Y81xE

related torrents

Torrent name

health leech seeds Size
 


comments (0)

Main Menu