Anime - Other

Psycho Diver Soul Siren

  • Download 5x Faster
  • Download torrent
  • Direct Download
  • Rate this torrent +  |  -
Psycho Diver Soul Siren

Free and Direct Download with Usenet.nl 300GB+ free


Torrent info

Name:Psycho Diver Soul Siren

Total Size: 751.62 MB

Magnet: Magnet Link

Seeds: 0

Leechers: 0

Stream: Watch Online @ Movie4u

Last Updated: 2015-09-02 11:33:55 (Update Now)

Torrent added: 2009-08-24 23:58:45





Torrent Files List


Psycho Diver- Soul Siren [XviD_AC3].avi (Size: 751.62 MB) (Files: 1)

 Psycho Diver- Soul Siren [XviD_AC3].avi

751.62 MB
 

tracker

leech seeds
 

Torrent description

Psycho Diver- Soul Siren

Psycho Diver Bosujima kann in die Gedankenwelt anderer Menschen eintauchen und auf diese Weise
psychische Krankheiten heilen. Er bekommt den Auftrag eine Popsängerin von ihren seelischen Lasten
zu befreien, da diese scheinbar nicht mehr singen kann. Sie ist zu allem Übel auch noch Mitglied in
einer ominösen Sekte, aus der man natürlich nicht austreten kann, und besitzt
eine "enorme psychische Kraft", die Bosujima noch gefährlich werden kann...

Format: Dolby, PAL, Surround Sound
Sprache: Deutsch (AC3), Englisch (AC3)
Studio: VCL
DVD-Erscheinungstermin: 7. August 2003
Produktionsjahr: 1995
Spieldauer: 51 Minuten

Allgemein
Vollständiger Name : C:Users3333DesktopPsycho Diver- Soul SirenPsycho Diver- Soul Siren [XviD_AC3].avi
Format : AVI
Format/Info : Audio Video Interleave
Dateigre : 752 MiB
Duration : 48min
Gesamte Bitrate : 2 169 Kbps
Verwendetes Programm : VirtualDubMod 1.5.10.2 (build 2540/release)
verwendete Encoder-Bibliothek : VirtualDubMod build 2540/release

Video
Format : MPEG-4 Visual
Format profile : Streaming [email protected]
Format settings, BVOP : Ja
Format settings, QPel : Nein
Format settings, GMC : No warppoints
Format settings, Matrix : Default
Muxing mode : Packet Bitstream
Codec ID : XVID
Codec ID/Hint : XviD
Duration : 48min
Bitrate : 1 259 Kbps
Breite : 640 Pixel
Höhe : 480 Pixel
Bildseitenverhältnis : 4/3
Bildwiederholungsrate : 25,000 FPS
Auflösung : 24 bits
Colorimetry : 4:2:0
Scan type : Progressive
Bits/(Pixel*Frame) : 0.164
Stream size : 436 MiB (58)
verwendete Encoder-Bibliothek : XviD 1.1.2 (UTC 2006-11-01)

Audio #1
Format : AC-3
Format/Info : Audio Coding 3
Codec ID : 2000
Duration : 48min
Bitraten-Modus : Constant
Bitrate : 448 Kbps
Kanäle : 6 Kanäle
Channel positions : Front: L C R, Rear: L R, LFE
Samplingrate : 48,0 KHz
Stream size : 155 MiB (21)
Alignment : Split accross interleaves
Interleave, duration : 40 ms (1,00 video frame)
Interleave, preload duration : 500 ms

Audio #2
Format : AC-3
Format/Info : Audio Coding 3
Codec ID : 2000
Duration : 48min
Bitraten-Modus : Constant
Bitrate : 448 Kbps
Kanäle : 6 Kanäle
Channel positions : Front: L C R, Rear: L R, LFE
Samplingrate : 48,0 KHz
Stream size : 155 MiB (21)
Alignment : Split accross interleaves
Interleave, duration : 40 ms (1,00 video frame)
Interleave, preload duration : 500 ms

Audio: deutsch, englisch
Untertitel: Nicht anwendbar/Keine Untertitel

related torrents

Torrent name

health leech seeds Size

Psycho Diver Soul Siren

0 0 751.62 MB 0
 

comments (0)

Main Menu