Anime - Other

Psycho Diver OVA Xvid (Jap Eng)

  • Download 5x Faster
  • Download torrent
  • Direct Download
  • Rate this torrent +  |  -
Psycho Diver OVA Xvid (Jap Eng)

Anonymous and Free Direct Download 300GB+


Torrent info

Name:Psycho Diver OVA Xvid (Jap Eng)

Total Size: 696.46 MB

Magnet: Magnet Link

Seeds: 6

Leechers: 3

Stream: Watch Online @ Movie4u

Last Updated: 2010-11-18 04:26:09 (Update Now)

Torrent added: 2009-08-24 23:58:40



VPN For Torrents

Torrent Files List


Psycho Diver OVA XviD.nfo (Size: 696.46 MB) (Files: 2)

 Psycho Diver OVA XviD.nfo

1.92 KB

 Psycho_Diver_OVA_Xvid(Jap-Eng).avi

696.46 MB
 

Announce URL: http://open.tracker.thepiratebay.org/announce

Torrent description

I Did not encode or originaly upload this, I was a seed. It just died so
I though Id reload it so that people can find, and watch this
violent anime. Its pretty rare and Ive never found any place to buy it.

-LordFuDang-




Original Torrent File
Psycho_Driver_Masei_Rakuryu_-_1_-_OVA_-_[Haterman](dub_en+).avi

File Nfo

Video
Format : MPEG-4 Visual
Format profile : [email protected]
Format settings, Matrix : Default
Codec ID : XVID
Duration : 48mn 26s
Width : 640 pixels
Height : 464 pixels
Display aspect ratio : 1.379
Frame rate : 25.000 fps
Stream size : 601 MiB (86%)
Writing library : XviD 0.0.12 (UTC 2003-06-11)

Audio #1
Language : English
Format : MPEG Audio
Codec ID : MP3
Duration : 48mn 24s
Bit rate mode : Variable
Bit rate : 125 Kbps
Nominal bit rate : 128 Kbps
Channel(s) : 2 channels
Sampling rate : 44.1 KHz
Resolution : 16 bits
Stream size : 43.4 MiB (6%)
Encoding settings : ABR

Audio #2
Language : English
Format : MPEG Audio
Codec ID : MP3
Duration : 48mn 24s
Bit rate mode : Variable
Bit rate : 129 Kbps
Nominal bit rate : 128 Kbps
Channel(s) : 2 channels
Sampling rate : 44.1 KHz
Resolution : 16 bits
Stream size : 44.6 MiB (6%)
Encoding settings : ABR

related torrents

Torrent name

health leech seeds Size

Psycho Diver Soul Siren

0 0 751.62 MB 0

Psycho Diver Soul Siren

0 0 751.62 MB 0
 


comments (0)

Main Menu