Other

madmen S03E02 HDTV XviD

  • Download 5x Faster
  • Download torrent
  • Direct Download
  • Rate this torrent +  |  -
madmen S03E02 HDTV XviD

Free and Direct Download with Usenet.nl 300GB+ free


Torrent info

Name:madmen S03E02 HDTV XviD

Total Size: 349.26 MB

Magnet: Magnet Link

Seeds: 0

Leechers: 0

Stream: Watch Online @ Movie4u

Last Updated: 2010-12-14 19:58:30 (Update Now)

Torrent added: 2009-08-24 23:36:13





Torrent Files List


madmen.S03E02.HDTV.XviD.avi (Size: 349.26 MB) (Files: 2)

 madmen.S03E02.HDTV.XviD.avi

349.26 MB

 Torrent Downloaded From Demonoid.com.txt

0.00 KB
 

Announce URL:

Torrent description

Originally Aired 8/23/09

Episode 2: Love Among the Ruins
Don's father-in-law pays a visit to his daughter's family. Peggy works hard on a campaign while the firm tries to decide if they will accommodate an unusual request from a client. Elsewhere, Roger plans a wedding.

Codec ID : XVID
Codec ID/Hint : XviD
Duration : 47mn 32s
Bit rate : 949 Kbps
Width : 640 pixels
Height : 368 pixels
Display aspect ratio : 16/9
Frame rate : 23.976 fps
Resolution : 24 bits
Colorimetry : 4:2:0
Scan type : Progressive
Bits/(Pixel*Frame) : 0.168
Stream size : 323 MiB (92%)
Writing library : XviD 1.2.1 (UTC 2008-12-04)

Audio
Format : MPEG Audio
Format version : Version 1
Format profile : Layer 3
Codec ID : 55
Codec ID/Hint : MP3
Duration : 47mn 32s
Bit rate mode : Variable
Bit rate : 68.6 Kbps
Channel(s) : 2 channels
Sampling rate : 48.0 KHz
Resolution : 16 bits
Stream size : 23.3 MiB (7%)

related torrents

Torrent name

health leech seeds Size
 

comments (0)

Main Menu