Drama

walk the line

  • Download 5x Faster
  • Download torrent
  • Direct Download
  • Rate this torrent +  |  -
walk the line

Free and Direct Download with Usenet.nl 300GB+ free


Torrent info

Name:walk the line

Total Size: 1.27 GB

Magnet: Magnet Link

Seeds: 0

Leechers: 0

Stream: Watch Online @ Movie4u

Last Updated: 2015-07-30 11:44:21 (Update Now)

Torrent added: 2009-08-24 22:33:46





Torrent Files List


nfo.txt (Size: 1.27 GB) (Files: 3)

 nfo.txt

2.30 KB

 tracked_by_h33t_com.txt

0.02 KB

 Walk the Line [P&S].avi

1.27 GB
 

tracker

leech seeds
 

Torrent description

A woman\\\'s love, given reluctantly, saves a man from addiction and self-destruction.
Traces the life of Johnny Cash from his boyhood, with the loss of a brother and the
loss of his father\\\'s affection, to 1968 when his outlaw side and his unhappiness give
way to the twin triumphs of his concert at Folsom Prison and June Carter\\\'s acceptance
of his marriage proposal. Along the way there\\\'s his first composition, first recording,
first marriage, daughters, being smitten with June, divorce, pills and booze, an empty
life, and the Carter family\\\'s nursing him back to health. June eases Johnny out of a
ring of fire.

IMDB# http://www.imdb.com/title/tt0358273/
General
Complete name : [WALK_THE_LINE]
Format : AVI
Format/Info : Audio Video Interleave
Format profile : OpenDML
File size : 1.27 GiB
Duration : 2h 15mn
Overall bit rate : 491 Kbps
Writing application : Lavf51.12.1

Video
Format : xvid
Codec ID : xvid
Duration : 6h 11mn
Bit rate : 438 Kbps
Width : 720 pixels
Height : 480 pixels
Display aspect ratio : 1.500
Frame rate : 23.976 fps
Standard : NTSC
Resolution : 24 bits
Bits/(Pixel*Frame) : 0.053
Stream size : 1.14 GiB (89%)

Audio
ID : 1
Format : MPEG Audio
Format version : Version 1
Format profile : Layer 3
Codec ID : 55
Codec ID/Hint : MP3
Duration : 2h 15mn
Bit rate mode : Constant
Bit rate : 128 Kbps
Channel(s) : 2 channels
Sampling rate : 48.0 KHz
Resolution : 16 bits
Stream size : 124 MiB (10%)
Alignment : Aligned on interleaves
Interleave, duration : 24 ms (0.58 video frame)
Interleave, preload duration : 24 ms
Writing library : LAME3.97



hash: B26F52BDE56256387D959101A75858716AA5FB0F

trackers............: http//h33t.com:3310/announce

.............: http://tracker.openbittorrent.com:80/announce

.............: http://tracker.publicbt.com:80/announce

===========tornster.com============

==========darksiderg.com===========

related torrents

Torrent name

health leech seeds Size
 

comments (0)

Main Menu