Other

Crazies (2010) [telesync] Xvid max

  • Download 5x Faster
  • Download torrent
  • Direct Download
  • Rate this torrent +  |  -
Crazies (2010) [telesync] Xvid max

Free and Direct Download with Usenet.nl 300GB+ free


Torrent info

Name:Crazies (2010) [telesync] Xvid max

Total Size: 696.43 MB

Magnet: Magnet Link

Seeds: 0

Leechers: 0

Stream: Watch Online @ Movie4u

Last Updated: 2010-02-26 08:14:24 (Update Now)

Torrent added: 2010-02-26 08:14:24





Torrent Files List


01-the_bulletmonks-no_gain_just_pain.mp3 (Size: 78.52 MB) (Files: 12)

 01-the_bulletmonks-no_gain_just_pain.mp3

6.67 MB

 02-the_bulletmonks-my_worlds_a_show.mp3

8.40 MB

 03-the_bulletmonks-lifestyle_junkie.mp3

4.24 MB

 04-the_bulletmonks-under_the_black_sun.mp3

6.09 MB

 05-the_bulletmonks-i_am.mp3

5.71 MB

 06-the_bulletmonks-canned_insanity.mp3

6.64 MB

 07-the_bulletmonks-downtown_is_dead.mp3

9.85 MB

 08-the_bulletmonks-never_be_a_wannabe.mp3

4.37 MB

 09-the_bulletmonks-hang_on_lord.mp3

9.08 MB

 10-the_bulletmonks-were_all_fucked.mp3

4.94 MB

 11-the_bulletmonks-tentacle.mp3

7.42 MB

 12-the_bulletmonks-no_gain_just_pain_-_unplugged_(bonus_track).mp3

5.12 MB
 

Announce URL: http://tracker.thepiratebay.org/announce

Torrent description

Format : AVI
Format/Info : Audio Video InterleaveB
Duration : 2h 8mn
Overall bit rate : 1 517 Kbps
Writing application : VirtualDubMod 1.5.10.2 (build 2542/release)
Writing library : VirtualDubMod build 2542/release
Original source form : MAX TORRENTZ
Copyright : SIGISMUNT

Video
Format : xvid
Codec ID : xvid
Duration : 2h 8mn
Bit rate : 1 376 Kbps
Width : 704 pixels
Height : 384 pixels
Display aspect ratio : 16:9
Frame rate : 23.976 fps
Resolution : 24 bits
Bits/(Pixel*Frame) : 0.212
Stream size : 1.23 GiB (91%)

Audio
ID : 1
Format : MPEG Audio
Format version : Version 1
Format profile : Layer 3
Codec ID : 55
Codec ID/Hint : MP3
Duration : 2h 8mn
Bit rate mode : Constant
Bit rate : 128 Kbps
Channel(s) : 2 channels
Sampling rate : 48.0 KHz
Resolution : 16 bits
Stream size : 118 MiB (8%)
Alignment : Aligned on interleaves
Interleave, duration : 24 ms (0.58 video frame)
Interleave, preload duration : 504 ms
http://www.imdb.com/title/tt0988045/

related torrents

Torrent name

health leech seeds Size
 

comments (0)

Main Menu