Metal

Slipknot Slipknot (re mastered) 2008 ape (image cue) lossles

  • Download 5x Faster
  • Download torrent
  • Direct Download
  • Rate this torrent +  |  -
Slipknot Slipknot (re mastered) 2008 ape (image cue) lossles

Free and Direct Download with Usenet.nl 300GB+ free


Torrent info

Name:Slipknot Slipknot (re mastered) 2008 ape (image cue) lossles

Total Size: 378.71 MB

Magnet: Magnet Link

Seeds: 0

Leechers: 0

Stream: Watch Online @ Movie4u

Last Updated: 2010-08-25 16:46:50 (Update Now)

Torrent added: 2009-08-24 20:23:14





Torrent Files List


track list.txt (Size: 378.71 MB) (Files: 4)

 track list.txt

0.24 KB

 Slipknot - Slipknot (re-mastered).cue

1.97 KB

 Slipknot - Slipknot (re-mastered).ape

378.70 MB

 Slipknot (re-mastered).log

2.22 KB
 

Announce URL: http://tpb.tracker.thepiratebay.org:80/announce

Torrent description

Track list :

01 742617000027
02 (Sic)
03 Eyeless
04 Wait And Bleed
05 Surfacing
06 Spit It Out
07 Me Inside
08 Tattered & Torn
09 Frail Limb Nursery
10 Purity
11 Liberate
12 Interloper
13 Prosthetics
14 No Life
15 Diluted
16 Only One
17 Scissors

Log :

Exact Audio Copy V0.99 prebeta 4 from 23. January 2008

EAC extraction logfile from 27. August 2008, 22:12

Slipknot / Slipknot (re-mastered)

Used drive : Optiarc DVD RW AD-7173A Adapter: 0 ID: 3

Read mode : Secure
Utilize accurate stream : Yes
Defeat audio cache : Yes
Make use of C2 pointers : No

Read offset correction : 48
Overread into Lead-In and Lead-Out : No
Fill up missing offset samples with silence : Yes
Delete leading and trailing silent blocks : No
Null samples used in CRC calculations : No
Used interface : Native Win32 interface for Win NT & 2000

Used output format : Internal WAV Routines
Sample format : 44.100 Hz; 16 Bit; Stereo


TOC of the extracted CD

Track | Start | Length | Start sector | End sector
---------------------------------------------------------
1 | 0:00.00 | 0:35.67 | 0 | 2691
2 | 0:35.67 | 3:19.70 | 2692 | 17686
3 | 3:55.62 | 3:56.26 | 17687 | 35412
4 | 7:52.13 | 2:27.62 | 35413 | 46499
5 | 10:20.00 | 3:38.07 | 46500 | 62856
6 | 13:58.07 | 2:39.60 | 62857 | 74841
7 | 16:37.67 | 2:38.59 | 74842 | 86750
8 | 19:16.51 | 2:53.62 | 86751 | 99787
9 | 22:10.38 | 0:45.01 | 99788 | 103163
10 | 22:55.39 | 4:13.74 | 103164 | 122212
11 | 27:09.38 | 3:04.21 | 122213 | 136033
12 | 30:13.59 | 2:17.45 | 136034 | 146353
13 | 32:31.29 | 4:59.65 | 146354 | 168843
14 | 37:31.19 | 2:47.62 | 168844 | 181430
15 | 40:19.06 | 3:23.20 | 181431 | 196675
16 | 43:42.26 | 2:24.42 | 196676 | 207517
17 | 46:06.68 | 8:23.52 | 207518 | 245294


Range status and errors

Selected range

Filename E:TempSlipknot - Slipknot (re-mastered).wav

Peak level 100.0 %
Range quality 100.0 %
Test CRC 5DC8A0F3
Copy CRC 5DC8A0F3
Copy OK

No errors occurred

End of status report

related torrents

Torrent name

health leech seeds Size
 

comments (0)

Main Menu