Metal

Sieges Even The Art Of Navigating By The Stars

  • Download 5x Faster
  • Download torrent
  • Direct Download
  • Rate this torrent +  |  -
Sieges Even The Art Of Navigating By The Stars

Anonymous and Free Direct Download 300GB+


Torrent info

Name:Sieges Even The Art Of Navigating By The Stars

Total Size: 439.10 MB

Magnet: Magnet Link

Seeds: 0

Leechers: 0

Stream: Watch Online @ Movie4u

Last Updated: 2015-08-30 21:01:30 (Update Now)

Torrent added: 2009-08-24 20:06:26



VPN For Torrents

Torrent Files List


folder.jpg (Size: 439.10 MB) (Files: 11)

 folder.jpg

797.11 KB

 The Art of Navigating by the Stars.log

4.96 KB

 Sieges Even - The Art of Navigating by the Stars - 01 - Intro- Navigating by the Stars.flac

2.49 MB

 Sieges Even - The Art of Navigating by the Stars - 06 - Sequence V- Blue Wide Open.flac

29.59 MB

 Sieges Even - The Art of Navigating by the Stars - 03 - Sequence II- The Lonely Views of Condors.flac

44.96 MB

 Sieges Even - The Art of Navigating by the Stars - 08 - Sequence VII- Lighthouse.flac

49.50 MB

 Sieges Even - The Art of Navigating by the Stars - 07 - Sequence VI- To the Ones Who Have Failed.flac

54.83 MB

 Sieges Even - The Art of Navigating by the Stars - 05 - Sequence IV- Stigmata.flac

58.11 MB

 Sieges Even - The Art of Navigating by the Stars - 04 - Sequence III- Unbreakable.flac

62.51 MB

 Sieges Even - The Art of Navigating by the Stars - 09 - Sequence VIII- Styx.flac

64.06 MB

 Sieges Even - The Art of Navigating by the Stars - 02 - Sequence I- The Weight.flac

72.27 MB
 

tracker

leech seeds
 

Torrent description

Sieges Even - The Art Of Navigating By The Stars

First run of the CD was this rip with EAC + FLAC.

See log.



Exact Audio Copy V0.99 prebeta 4 from 23. January 2008

EAC extraction logfile from 30. June 2009, 22:48

Sieges Even / The Art of Navigating by the Stars

Used drive : HL-DT-STDVD-RAM GSA-H55N Adapter: 0 ID: 0

Read mode : Secure
Utilize accurate stream : Yes
Defeat audio cache : No
Make use of C2 pointers : No

Read offset correction : 102
Overread into Lead-In and Lead-Out : No
Fill up missing offset samples with silence : Yes
Delete leading and trailing silent blocks : No
Null samples used in CRC calculations : No
Used interface : Native Win32 interface for Win NT & 2000
Gap handling : Not detected, thus appended to previous track

Used output format : User Defined Encoder
Selected bitrate : 768 kBit/s
Quality : High
Add ID3 tag : No
Command line compressor : C:\Arquivos de programas\Exact Audio Copy\FLAC\FLAC.EXE
Additional command line options : -6 -V -T "ARTIST=%a" -T "TITLE=%t" -T "ALBUM=%g" -T "DATE=%y" -T "TRACKNUMBER=%n" -T "GENRE=%m" -T "COMMENT=%e" %s -o %d


TOC of the extracted CD

Track | Start | Length | Start sector | End sector
---------------------------------------------------------
1 | 0:00.00 | 0:29.40 | 0 | 2214
2 | 0:29.40 | 10:13.47 | 2215 | 48236
3 | 10:43.12 | 6:14.23 | 48237 | 76309
4 | 16:57.35 | 8:59.61 | 76310 | 116795
5 | 25:57.21 | 8:22.03 | 116796 | 154448
6 | 34:19.24 | 5:13.29 | 154449 | 177952
7 | 39:32.53 | 7:26.11 | 177953 | 211413
8 | 46:58.64 | 7:41.31 | 211414 | 246019
9 | 54:40.20 | 8:55.53 | 246020 | 286197


Track 1

Filename D:\Músicas\Metal\Sieges Even\Sieges Even - The Art Of Navigating By The Stars\Sieges Even - The Art of Navigating by the Stars - 01 - Intro- Navigating by the Stars.wav

Peak level 100.0 %
Track quality 99.6 %
Copy CRC 4860A466
Accurately ripped (confidence 18) [5DDA0C3C]
Copy OK

Track 2

Filename D:\Músicas\Metal\Sieges Even\Sieges Even - The Art Of Navigating By The Stars\Sieges Even - The Art of Navigating by the Stars - 02 - Sequence I- The Weight.wav

Peak level 100.0 %
Track quality 100.0 %
Copy CRC 9607614A
Accurately ripped (confidence 18) [707F76FE]
Copy OK

Track 3

Filename D:\Músicas\Metal\Sieges Even\Sieges Even - The Art Of Navigating By The Stars\Sieges Even - The Art of Navigating by the Stars - 03 - Sequence II- The Lonely Views of Condors.wav

Peak level 100.0 %
Track quality 100.0 %
Copy CRC 5CB320C2
Accurately ripped (confidence 17) [4FA5AD72]
Copy OK

Track 4

Filename D:\Músicas\Metal\Sieges Even\Sieges Even - The Art Of Navigating By The Stars\Sieges Even - The Art of Navigating by the Stars - 04 - Sequence III- Unbreakable.wav

Peak level 100.0 %
Track quality 100.0 %
Copy CRC BD7B21C5
Accurately ripped (confidence 17) [EB3D1DA7]
Copy OK

Track 5

Filename D:\Músicas\Metal\Sieges Even\Sieges Even - The Art Of Navigating By The Stars\Sieges Even - The Art of Navigating by the Stars - 05 - Sequence IV- Stigmata.wav

Peak level 100.0 %
Track quality 100.0 %
Copy CRC 2238BBA9
Accurately ripped (confidence 18) [378ADBA1]
Copy OK

Track 6

Filename D:\Músicas\Metal\Sieges Even\Sieges Even - The Art Of Navigating By The Stars\Sieges Even - The Art of Navigating by the Stars - 06 - Sequence V- Blue Wide Open.wav

Peak level 100.0 %
Track quality 100.0 %
Copy CRC 2EE0E53C
Accurately ripped (confidence 17) [0FC730F7]
Copy OK

Track 7

Filename D:\Músicas\Metal\Sieges Even\Sieges Even - The Art Of Navigating By The Stars\Sieges Even - The Art of Navigating by the Stars - 07 - Sequence VI- To the Ones Who Have Failed.wav

Peak level 100.0 %
Track quality 100.0 %
Copy CRC 940D43A4
Accurately ripped (confidence 17) [646B5137]
Copy OK

Track 8

Filename D:\Músicas\Metal\Sieges Even\Sieges Even - The Art Of Navigating By The Stars\Sieges Even - The Art of Navigating by the Stars - 08 - Sequence VII- Lighthouse.wav

Peak level 100.0 %
Track quality 100.0 %
Copy CRC 34E215F7
Accurately ripped (confidence 17) [CB2051D4]
Copy OK

Track 9

Filename D:\Músicas\Metal\Sieges Even\Sieges Even - The Art Of Navigating By The Stars\Sieges Even - The Art of Navigating by the Stars - 09 - Sequence VIII- Styx.wav

Peak level 100.0 %
Track quality 100.0 %
Copy CRC 7BE14346
Accurately ripped (confidence 16) [64838376]
Copy OK


All tracks accurately ripped

No errors occurred

End of status report

related torrents

Torrent name

health leech seeds Size
 


comments (0)

Main Menu