Other

PBS Nova scienceNOW 20090630 avi

  • Download 5x Faster
  • Download torrent
  • Direct Download
  • Rate this torrent +  |  -
PBS Nova scienceNOW 20090630 avi

Free and Direct Download with Usenet.nl 300GB+ free


Torrent info

Name:PBS Nova scienceNOW 20090630 avi

Total Size: 2.60 GB

Magnet: Magnet Link

Seeds: 2

Leechers: 5

Stream: Watch Online @ Movie4u

Last Updated: 2010-07-12 09:37:43 (Update Now)

Torrent added: 2009-08-24 19:33:11





Torrent Files List


PBS.Nova.scienceNOW.20090630.avi (Size: 2.60 GB) (Files: 1)

 PBS.Nova.scienceNOW.20090630.avi

2.60 GB
 

Announce URL: http://open.tracker.thepiratebay.org/announce

Torrent description

General
Complete name : D:\temporary\novasciencenow\PBS.Nova.scienceNOW.20090630.avi
Format : AVI
Format/Info : Audio Video Interleave
Format profile : OpenDML
File size : 2.60 GiB
Duration : 54mn 39s
Overall bit rate : 6 797 Kbps
Writing application : VirtualDubMod 1.5.10.2 (build 2540/release)
Writing library : VirtualDubMod build 2540/release

Video
ID : 0
Format : MPEG-4 Visual
Format profile : Streaming [email protected]
Format settings, BVOP : Yes
Format settings, QPel : No
Format settings, GMC : 3 warppoints
Format settings, Matrix : Default (H.263)
Muxing mode : Packed bitstream
Codec ID : XVID
Codec ID/Hint : XviD
Duration : 54mn 39s
Bit rate : 6 386 Kbps
Width : 1 272 pixels
Height : 716 pixels
Display aspect ratio : 16/9
Frame rate : 59.940 fps
Resolution : 24 bits
Colorimetry : 4:2:0
Scan type : Interlaced
Scan order : Top Field First
Bits/(Pixel*Frame) : 0.117
Stream size : 2.44 GiB (94%)
Writing library : XviD 1.2.1 (UTC 2008-12-04)

Audio
ID : 1
Format : AC-3
Format/Info : Audio Coding 3
Codec ID : 2000
Duration : 54mn 37s
Bit rate mode : Constant
Bit rate : 384 Kbps
Channel(s) : 3 channels
Channel positions : Front: L R, Surround: C
Sampling rate : 48.0 KHz
Stream size : 150 MiB (6%)
Alignment : Split accross interleaves
Interleave, duration : 17 ms (1.00 video frame)
Interleave, preload duration : 500 ms

related torrents

Torrent name

health leech seeds Size
 

comments (0)

Main Menu