Sci-Fi

Watchmen 2009 DVDrip oddball ENG

  • Download 5x Faster
  • Download torrent
  • Direct Download
  • Rate this torrent +  |  -
Watchmen 2009 DVDrip oddball ENG

Free and Direct Download with Usenet 300GB+ free


Torrent info

Name:Watchmen 2009 DVDrip oddball ENG

Total Size: 1.23 GB

Magnet: Magnet Link

Seeds: 0

Leechers: 0

Stream: Watch Online @ Movie4u

Last Updated: 2011-05-19 15:34:32 (Update Now)

Torrent added: 2009-08-24 15:35:32




Torrent Files List


Reed Me .txt (Size: 1.23 GB) (Files: 3)

 Reed Me .txt

0.06 KB

 Watchmen DVD cover.jpg

4.78 KB

 Watchmen - 2009 DVDrip oddball-ENG.avi

1.23 GB
 

Announce URL:

Torrent description

Watchmen is a 2009 superhero film directed by Zack Snyder and starring Malin Akerman, Billy Crudup, Matthew Goode, Jackie Earle Haley, Jeffrey Dean Morgan and Patrick Wilson. It is an adaptation of the comic book of the same name by Alan Moore and Dave Gibbons. Set in an alternate-history 1985, tensions heighten between the United States and the Soviet Union as a group of former vigilantes investigates an apparent conspiracy against them and uncovers something even more grandiose and sinister.


Screen Shots

Watchmen   2009 DVDrip oddball ENG preview 0

Watchmen   2009 DVDrip oddball ENG preview 1

Watchmen   2009 DVDrip oddball ENG preview 2

Watchmen   2009 DVDrip oddball ENG preview 3

Watchmen   2009 DVDrip oddball ENG preview 4


General
Complete name : Watchmen
Format : AVI
Format/Info : Audio Video Interleave
File size : 1.23 GiB
Duration : 2h 35mn
Overall bit rate : 1 134 Kbps

Video
Format : MPEG-4 Visual
Format profile : Streaming [email protected]
Format settings, BVOP : Yes
Format settings, QPel : No
Format settings, GMC : No warppoints
Format settings, Matrix : Default
Muxing mode : Packed bitstream
Codec ID : XVID
Codec ID/Hint : XviD
Duration : 2h 35mn
Bit rate : 930 Kbps
Width : 1 024 pixels
Height : 582 pixels
Display aspect ratio : 16/9
Frame rate : 29.970 fps
Resolution : 24 bits
Colorimetry : 4:2:0
Scan type : Progressive
Bits/(Pixel*Frame) : 0.052
Stream size : 1.01 GiB (82%)
Writing library : XviD 1.1.0 (UTC 2005-11-22)

Audio
Format : MPEG Audio
Format version : Version 1
Format profile : Layer 3
Codec ID : 55
Codec ID/Hint : MP3
Duration : 2h 35mn
Bit rate mode : Constant
Bit rate : 192 Kbps
Channel(s) : 2 channels
Sampling rate : 44.1 KHz
Resolution : 16 bits
Video delay : 26ms
Stream size : 213 MiB (17%)
Alignment : Split accross interleaves
Interleave, duration : 33 ms (1.00 video frame)
Title : Audio Stream
Writing library : LAME3.92

related torrents

Torrent name

health leech seeds Size
 

comments (0)

Main Menu