TV - Other

[DB FR] Bleach 230HD subfrench H264 LC AAC [7D0FC7FD] [empereur team com]

  • Download 5x Faster
  • Download torrent
  • Direct Download
  • Rate this torrent +  |  -
[DB FR] Bleach 230HD subfrench H264 LC AAC [7D0FC7FD] [empereur team com]

Free and Direct Download with Usenet 300GB+ free


Torrent info

Name:[DB FR] Bleach 230HD subfrench H264 LC AAC [7D0FC7FD] [empereur team com]

Total Size: 218.43 MB

Magnet: Magnet Link

Seeds: 0

Leechers: 0

Stream: Watch Online @ Movie4u

Last Updated: 2015-05-21 15:25:15 (Update Now)

Torrent added: 2009-08-24 13:42:53




Torrent Files List


[DB-FR]_Bleach_230HD_subfrench_H264_LC_AAC_[7D0FC7FD].mp4 (Size: 218.43 MB) (Files: 1)

 [DB-FR]_Bleach_230HD_subfrench_H264_LC_AAC_[7D0FC7FD].mp4

218.43 MB
 

tracker

leech seeds
 

Torrent description

Pour Telecharger ce torrent vous devez vous inscrire sur

http://www.empereur-team.com/

Présentation:

Le personnage principal se nomme Ichigo Kurosaki, un adolescent de 15 ans qui vient de rentrer au lycée. Sa particularité, outre le fait d'avoir des cheveux orange et d'avoir un goût très prononcé pour la bagarre hérité visiblement de son père, est qu'il peut voir et toucher les morts. Régulièrement, Ichigo rencontre donc des fantômes à qui il essaie de rendre service pour certains.

Un soir, un Shinigami (désignant un être spirituel et pouvant être traduit par "dieu de la mort" ) rentre dans sa chambre. Les Shinigami sont chargés de guider les bonnes âmes (les "Plus" ) vers le Paradis ou plutôt la "Soul Society" et d'épurer les mauvaises âmes (les "Hollow" ). Au même moment, la maison d'Ichigo se fait attaquer par un monstre, un de ces mauvais esprits. Le Shinigami, qui s'appelle Kuchiki Rukia en réalité, va tenter de l'anéantir, en vain.

Elle explique à notre héros que le Hollow en a après lui, car il possède une grande force spirituelle : aussi pense-elle pouvoir lui transmettre ses pouvoirs afin qu'il devienne lui-même un Shinigami. Ichigo hérite de cette manière des pouvoirs de Kuchiki. A la grande stupéfaction de cette dernière, il semble non pas se contenter de la moitié de ses pouvoirs, mais de tous.
Ichigo, devenu Shinigami à son tour, est donc prêt à faire la chasse aux Hollow !

Informations:


Titre original : Bleach
Année de production : 2004
Genre : Action aventure combat & arts mart.
Auteurs : Kubotite
Type / Durée : Épisodes de 25 mins
Langue : Japonais
Sous-titre : Francais


Contenu:





Quote:



General
File size : 218 MiB
Duration : 23mn 49s
Overall bit rate : 1 281 Kbps
Encoded date : UTC 2009-07-29 17:10:12
Tagged date : UTC 2009-07-29 17:10:12

Video
ID : 1
Format : AVC
Format/Info : Advanced Video Codec
Format profile : [email protected]
Format settings, CABAC : Yes
Format settings, ReFrames : 3 frames
Codec ID : avc1
Codec ID/Info : Advanced Video Coding
Duration : 23mn 49s
Bit rate mode : Variable
Bit rate : 1 150 Kbps
Maximum bit rate : 4 437 Kbps
Width : 1 280 pixels
Height : 720 pixels
Display aspect ratio : 16/9
Frame rate mode : Constant
Frame rate : 23.976 fps
Resolution : 24 bits
Colorimetry : 4:2:0
Scan type : Progressive
Bits/(Pixel*Frame) : 0.052
Stream size : 196 MiB (90%)
Writing library : x264 core 68 r1183M f21daff
Encoding settings : cabac=1 / ref=3 / deblock=1:1:1 / analyse=0x3:0x113 / me=umh / subme=9 / psy_rd=0.0:0.0 / mixed_ref=1 / me_range=20 / chroma_me=1 / trellis=2 / 8x8dct=1 / cqm=0 / deadzone=21,11 / chroma_qp_offset=0 / threads=4 / nr=0 / decimate=1 / mbaff=0 / bframes=3 / b_pyramid=0 / b_adapt=2 / b_bias=0 / direct=3 / wpredb=1 / keyint=500 / keyint_min=25 / scenecut=40 / rc=2pass / bitrate=1150 / ratetol=1.0 / qcomp=0.70 / qpmin=10 / qpmax=51 / qpstep=4 / cplxblur=20.0 / qblur=0.5 / vbv_maxrate=24000 / vbv_bufsize=24000 / ip_ratio=1.40 / pb_ratio=1.40 / aq=0
Encoded date : UTC 2009-07-29 17:10:12
Tagged date : UTC 2009-07-29 17:10:26

Audio
ID : 2
Format : AAC
Format/Info : Advanced Audio Codec
Format version : Version 4
Format profile : LC
Format settings, SBR : No
Codec ID : 40
Duration : 23mn 49s
Bit rate mode : Variable
Bit rate : 128 Kbps
Maximum bit rate : 147 Kbps
Channel(s) : 2 channels
Channel positions : L R
Sampling rate : 48.0 KHz
Resolution : 16 bits
Stream size : 21.8 MiB (10%)
Encoded date : UTC 2009-07-29 17:10:26
Tagged date : UTC 2009-07-29 17:10:26

related torrents

Torrent name

health leech seeds Size
 

comments (0)

Main Menu