Drama

Julie (1975) ~ {ERG} ~ Source DUS

  • Download 5x Faster
  • Download torrent
  • Direct Download
  • Rate this torrent +  |  -
Julie (1975) ~ {ERG} ~ Source DUS

Anonymous and Free Direct Download 300GB+


Torrent info

Name:Julie (1975) ~ {ERG} ~ Source DUS

Total Size: 1.37 GB

Magnet: Magnet Link

Seeds: 0

Leechers: 0

Stream: Watch Online @ Movie4u

Last Updated: 2012-06-30 08:10:16 (Update Now)

Torrent added: 2009-08-24 13:35:45



VPN For Torrents

Torrent Files List


Julie 1975 XVID - 2 CD-RIP.avi (Size: 1.37 GB) (Files: 1)

 Julie 1975 XVID - 2 CD-RIP.avi

1.37 GB
 

Announce URL:

Torrent description

Julie is a 1975 Hindi film that starred Laxmi in the title role. It also starred Nadira, in an award winning role, and Sridevi as a child star. The film became a box office hit.

Julie was also a musical hit, with award winning music by Rajesh Roshan which won him the Filmfare Award for the year. It had one of the first English language songs in an Indian film - My Heart is Beating, sung by Preeti Sagar. [1]

It is a rare Hindi film based around an Anglo-Indian family. It is a remake of a Malayalam hit film titled Chattakari (1974), which also starred Laxmi.[2] She would star in yet another remake, the Telugu film Miss Julie Prema Katha (1975). She didn't act in the Kannada remake, released in 2006, which had Ramya in the title role as "Julie" and Dino Morea as the leading man.[3]

PLOT

This film depicts the restrictive social conventions regarding intercaste marriage and unwed motherhood in India. Julie (Laxmi) is a Christian Anglo-Indian girl with a loving, but alcoholic father (Om Prakash) and a domineering mother (Nadira), a younger brother and sister (Sridevi). She falls in love with her best friend's (Rita Bhaduri) brother Shashi Bhattacharya (Vikram), a Hindu boy, and she has a passionate encounter with him, which leaves her pregnant. He goes away to college, not knowing about her condition. Her mother is distraught when Julie tells her about the pregnancy. They don't tell the rest of the family. Her mother thinks about getting Julie an abortion, but a devout Christian (Ruby Myers) talks her out of it. Julie is sent away to have her baby in secret. The rest of the family is told that Julie got a job. After the baby's birth, Julie's mother arranges for the child to be left in an orphanage, and demands that Julie return home and forget about the baby.

When she comes back home, her father has died. She is now the primary earner in the family. Later, she runs into her Hindu boyfriend and tells him everything. He asks to marry her, but his mother objects to the mixed marriage. She blames Julie for seducing her son and having the baby. Julie's mother doesn't want the marriage either, as it will represent a mixed-caste marriage, and she wants to return to England. However, the wisdom of the boyfriend's fatherUtpal Dutt prevails as he confronts the mothers' prejudices regarding caste and religion, and urges both to accept the baby boy. The film ends with the mothers offering their full blessings to the young couple, and Julie's mother promising her grandson she will "never leave him."




Format settings, QPel : Yes
Format settings, GMC : No warppoints
Format settings, Matrix : Default (H.263)
Codec ID : XVID
Codec ID/Hint : XviD
Duration : 2h 26mn
Bit rate : 1 166 Kbps
Width : 640 pixels
Height : 480 pixels
Display aspect ratio : 4/3
Frame rate : 23.976 fps
Resolution : 24 bits
Colorimetry : 4:2:0
Scan type : Progressive
Bits/(Pixel*Frame) : 0.158
Stream size : 1.19 GiB (87%)
Writing library : XviD 1.2.1 (UTC 2008-12-04)

Audio
Format : AC-3
Format/Info : Audio Coding 3
Codec ID : 2000
Duration : 2h 26mn
Bit rate mode : Constant
Bit rate : 160 Kbps
Channel(s) : 2 channels
Channel positions : L R
Sampling rate : 48.0 KHz
Stream size : 168 MiB (12%)
Alignment : Split accross interleaves
Interleave, duration : 42 ms (1.00 video frame)
Interleave, preload duration : 500 ms

related torrents

Torrent name

health leech seeds Size
 


comments (0)

Main Menu