Electronic

Hotel Costes Vol 6 by Pompougnac, Lossless Flac + Cue tntvillage scambioetico orgby ramasutra

  • Download 5x Faster
  • Download torrent
  • Direct Download
  • Rate this torrent +  |  -

Torrent info

Name:Hotel Costes Vol 6 by Pompougnac, Lossless Flac + Cue tntvillage scambioetico orgby ramasutra

Total Size: 440.33 MB

Magnet: Magnet Link

Seeds: 1

Leechers: 20

Stream: Watch Online @ Movie4u

Last Updated: 2010-11-29 07:51:28 (Update Now)

Torrent added: 2008-07-29 06:38:46




Torrent Files List


Hotel Costes 6.cue (Size: 440.33 MB) (Files: 7)

 Hotel Costes 6.cue

1.71 KB

 Hotel Costes 6.flac

439.33 MB

 Hotel Costes 6.log

2.92 KB

 Hotel Costes Vol[1].06 - Back.jpg

223.34 KB

 Hotel Costes Vol[1].06 - CD.jpg

234.89 KB

 Hotel Costes Vol[1].06 - Front.jpg

45.75 KB

 Hotel Costes Vol[1].06 - Front2.jpg

508.57 KB
 

Announce URL: http://tracker.tntvillage.scambioetico.org:2710/announce

Torrent description

[color=purple] by Ramasutra [/color]

[color=green]:::->Cover<-:::[/color]

Hotel Costes Vol  6 by Pompougnac, Lossless Flac + Cue tntvillage scambioetico orgby ramasutra preview 0Hotel Costes Vol  6 by Pompougnac, Lossless Flac + Cue tntvillage scambioetico orgby ramasutra preview 1

[color=green]:::->Dati Album<-:::[/color][/b]


Autore: by Pompougnac
Titolo:Hotel Costes Vol. 6
Anno: 2003
Genere: Electronic / Chillout
Etichetta:Polygram / Pschent
fonte cd /originale /cdda
Cover : Incluse

[color=green]:::->Tracklist<-:::[/color]

1. In The Black Of Night Slow Train
2. Reality Check Stigmato Inc.
3. Métropolitain Emmanuel Santarromana
4. Surround Me With Your Love (Mental Overdrive Remix)
5. Rolf Royce feat. Stephan Graf Hadik Wildner Tosca
6. Morenito Stephane Pompougnac featuring Clementine
7. Got To Be In Love (Dub Mix) Barbara Mendes
8. Snowblind Minus 8
9. Come On Dutch Rhythm Combo
10. You Fly Me Fingathing
11. The Breeze Is Black (Moonstarr Remix) Stephane Pompougnac
12. Bluesless Spiro Projecto feat. Josefina Sanner -
13. Party's On Grand Palace
14. Un Monde Sans Frime Doctor Jazz's Universal Remedy


-----------------------------------------------------------------------------------------------------------------------
L'eclettico dj francese è arrivato alla ribalta grazie ad un vero colpo di fortuna, sostituì un dj per una sera in un club e restò davanti a quei giradischi per tre anni. Notato da Jean-Louis Costes (manager e padrone dell'omonimo hotel), che ha avuto la bizzarra idea di mettere un dj ai "piatti" del suo ristorante, Pompugnac ha saputo fondere atmosfere sognanti, ritmi lounge, latin jazz e downtempo in una miscela accattivante. Elettronica mescolata all'acustica alla maniera stilish di José Padilla di Café del Mar, con la differenza che anziché da abbronzati villeggianti in costume, l'Hotel Costes è frequentato da attori in smocking e top models in lungo.

Ecco la seconda aggiungendo La Suite compilation Stéphane Pompougnac continua, con l'eleganza che da sempre lo caratterizza, il suo percorso nella musica a esplorare i temi dei viaggi e dell'amore.

.

Un disco da non perdere per gli amanti della "New French Sophistication" di alto livello.



Parte il progetto dei Hotel Costes ,vi ricordo che il vol.1,vol2 vol.3,vol.4 vol.5 e il The best of. sono stati gia rellato da me.

Arriviamo fino al vol.9 ,perche il vol.10 e' fuori statuto.
-----------------------------------------------------------------------------------------------------------------------
english

Stéphane Pompougnac's Hôtel Costes series gets a boost on its sixth installment, mixing in a bit more grit with the pretty ambience and silky beats. Actually, "grit" isn’t quite accurate; Pompougnac’s musical choices still lean heavily toward the cool, classy lounge of Jean-Louis Costes’ famous Parisian hotel/club. But bits of urban groove and subdued jungle rhythms are present as well. Tosca’s druggy "Rolf Royce" (from Delhi9) mines a simple, slap-bass line like a Happy Mondays outtake, while Minus 8 makes a jazzy, beautiful mess out of "Snowblind." Unlike past efforts, Costes 6 gets better as it goes, wrapping with the d&b-meets-French-chanteuse clatter of "Un Monde Sans Frime." Like slightly uncouth, yet good-natured guests, these new Hôtel residents might not be as fashionable, but they’re still the best things about the joint
[CODE]Exact Audio Copy V0.99 prebeta 3 from 28. July 2007

EAC extraction logfile from 29. July 2008, 8:47

- / Hotel Costes 6

Used drive : _NEC DVD_RW ND-3550A Adapter: 5 ID: 0

Read mode : Secure
Utilize accurate stream : Yes
Defeat audio cache : Yes
Make use of C2 pointers : No

Read offset correction : 48
Overread into Lead-In and Lead-Out : No
Fill up missing offset samples with silence : Yes
Delete leading and trailing silent blocks : No
Null samples used in CRC calculations : No
Used interface : Installed external ASPI interface

Used output format : User Defined Encoder
Selected bitrate : 768 kBit/s
Quality : High
Add ID3 tag : No
Command line compressor : C:\Programmi\Exact Audio Copy\FLAC\FLAC.EXE
Additional command line options : -6 -V -T "ARTIST=%a" -T "TITLE=%t" -T "ALBUM=%g" -T "DATE=%y" -T "TRACKNUMBER=%n" -T "GENRE=%m" -T "COMMENT=%e" %s -o %d


TOC of the extracted CD

Track | Start | Length | Start sector | End sector
---------------------------------------------------------
1 | 0:00.00 | 4:31.39 | 0 | 20363
2 | 4:31.39 | 3:38.26 | 20364 | 36739
3 | 8:09.65 | 3:13.73 | 36740 | 51287
4 | 11:23.63 | 5:49.43 | 51288 | 77505
5 | 17:13.31 | 5:38.43 | 77506 | 102898
6 | 22:51.74 | 5:08.14 | 102899 | 126012
7 | 28:00.13 | 2:49.54 | 126013 | 138741
8 | 30:49.67 | 4:55.29 | 138742 | 160895
9 | 35:45.21 | 6:04.50 | 160896 | 188245
10 | 41:49.71 | 2:52.66 | 188246 | 201211
11 | 44:42.62 | 6:27.70 | 201212 | 230306
12 | 51:10.57 | 4:02.33 | 230307 | 248489
13 | 55:13.15 | 4:08.17 | 248490 | 267106
14 | 59:21.32 | 5:47.72 | 267107 | 293203


Range status and errors

Selected range

Filename D:\Documents and Settings\salvo.SN116508160310\Documenti\Hotel Costes 6.wav

Peak level 100.0 %
Range quality 99.9 %
Test CRC 592A0882
Copy CRC 592A0882
Copy OK

No errors occurred


AccurateRip summary

Track 1 not present in database
Track 2 not present in database
Track 3 not present in database
Track 4 not present in database
Track 5 not present in database
Track 6 not present in database
Track 7 not present in database
Track 8 not present in database
Track 9 not present in database
Track 10 not present in database
Track 11 not present in database
Track 12 not present in database
Track 13 not present in database
Track 14 not present in database

None of the tracks are present in the AccurateRip database

End of status report

[/CODE]

related torrents

Torrent name

health leech seeds Size
 


comments (0)

Main Menu