TV - Other

Watchdog 2009 05 04 WS PDTV Zerofox [mazysnuthouse org]

  • Download 5x Faster
  • Download torrent
  • Direct Download
  • Rate this torrent +  |  -
Watchdog 2009 05 04 WS PDTV Zerofox [mazysnuthouse org]

Anonymous and Free Direct Download 300GB+


Torrent info

Name:Watchdog 2009 05 04 WS PDTV Zerofox [mazysnuthouse org]

Total Size: 224.26 MB

Magnet: Magnet Link

Seeds: 0

Leechers: 0

Stream: Watch Online @ Movie4u

Last Updated: 2010-04-09 14:32:52 (Update Now)

Torrent added: 2009-08-24 11:10:37



VPN For Torrents

Torrent Files List


Watchdog - 2009-05-04 - WS PDTV Zerofox.avi (Size: 224.26 MB) (Files: 1)

 Watchdog - 2009-05-04 - WS PDTV Zerofox.avi

224.26 MB
 

Announce URL: http://mazysnuthouse.org/announce.php?passkey=tssespecialtorrentv1byxamsep2007

Torrent description

Show: Watchdog
Channel: BBC One
Airdate: 2009-05-04, 19:30BST
Nicky Campbell, Julia Bradbury, Anita Rani and Paul Heiney present the latest consumer news and advice from the Watchdog office, with investigations and topical reports.
This week:

*

More on the DVLA's c**kups and blunders, including an appearance by the director of the DVLA.
*

Is customer service getting better or worse? The results of the Watchdog survey.
*

Telephone customer service - who kept you waiting the longest? And what have they got to say for themselves?

General
Complete name : Watchdog - 2009-05-04 - WS PDTV Zerofox.avi
Format : AVI
Format/Info : Audio Video Interleave
File size : 224 MiB
Duration : 29mn 21s
Overall bit rate : 1 068 Kbps
Writing application : VirtualDubMod 1.5.4.1 (build 2178/release)
Writing library : VirtualDubMod build 2178/release

Video
Format : MPEG-4 Visual
Format profile : Streaming [email protected]
Format settings, BVOP : Yes
Format settings, QPel : No
Format settings, GMC : No warppoints
Format settings, Matrix : Custom
Codec ID : XVID
Codec ID/Hint : XviD
Duration : 29mn 21s
Bit rate : 946 Kbps
Width : 720 pixels
Height : 400 pixels
Display aspect ratio : 16/9
Frame rate : 25.000 fps
Resolution : 24 bits
Colorimetry : 4:2:0
Scan type : Progressive
Bits/(Pixel*Frame) : 0.131
Stream size : 199 MiB (89%)
Writing library : XviD 1.2.0.dev47 (UTC 2006-11-01)

Audio
Format : MPEG Audio
Format version : Version 1
Format profile : Layer 3
Codec ID : 55
Codec ID/Hint : MP3
Duration : 29mn 21s
Bit rate mode : Variable
Bit rate : 109 Kbps
Minimum bit rate : 128 Kbps
Channel(s) : 2 channels
Sampling rate : 48.0 KHz
Resolution : 16 bits
Stream size : 22.8 MiB (10%)
Alignment : Aligned on interleaves
Interleave, duration : 24 ms (0.60 video frame)
Interleave, preload duration : 583 ms
Writing library : LAME3.97
Encoding settings : ABR

related torrents

Torrent name

health leech seeds Size
 


comments (0)

Main Menu