TV - Other

WACKY RACES VOLUME ONE [DVDRIP][ENG] KIDZCORNER&J T R

  • Download 5x Faster
  • Download torrent
  • Direct Download
  • Rate this torrent +  |  -
WACKY RACES VOLUME ONE [DVDRIP][ENG] KIDZCORNER&J T R

Anonymous and Free Direct Download


Torrent info

Name:WACKY RACES VOLUME ONE [DVDRIP][ENG] KIDZCORNER&J T R

Total Size: 897.83 MB

Magnet: Magnet Link

Seeds: 0

Leechers: 0

Stream: Watch Online @ Movie4u

Last Updated: 2016-01-28 00:37:19 (Update Now)

Torrent added: 2009-08-24 10:55:07



VPN For Torrents

Torrent Files List


WRVOL1.avi (Size: 897.83 MB) (Files: 5)

 WRVOL1.avi

897.77 MB

 Tracked by moviesb4time.biz.txt

1.35 KB

 Torrent downloaded from Demonoid.com-1.txt

0.05 KB

 633129_DV_L_F.JPG

27.21 KB

 633129_DV_L_B.JPG

32.53 KB
 

tracker

leech seeds
 

Torrent description

Fasten your seat belts and get ready for a fast and furious ride with the crazy contestants in the World's Wackiest Race!

Volume One Episodes
01. Why Oh Why Wyoming
02. Beat the Clock to Yellow Rock
03. Mish Mash Missouri Dash
04. The Baja Ha Ha Race
05. Real Gone Ape
06. Scout Scatter
07. Free Wheeling to Wheeling
08. The Zippy Mississippi Race
09. Traffic Jambalaya
10. The Speedy Arkansas Traveller
11. By Rollercoaster to Upsan Downs.

----------------------

General
Complete name : C:\Users\joker\Documents\WACKY RACES-VOLUME ONE-[DVDRIP][ENG]-KIDZCORNER&J.T.R\WRVOL1.avi
Format : AVI
Format/Info : Audio Video Interleave
File size : 898 MiB
Duration : 2h 6mn
Overall bit rate : 995 Kbps
Writing application : FairUse Wizard - http://fairusewizard.com
Writing library : The best and REALLY easy backup tool

Video
Format : MPEG-4 Visual
Format profile : [email protected]
Format settings, BVOP : No
Format settings, QPel : No
Format settings, GMC : No warppoints
Format settings, Matrix : Default
Codec ID : XVID
Codec ID/Hint : XviD
Duration : 2h 6mn
Bit rate : 858 Kbps
Width : 704 pixels
Height : 512 pixels
Display aspect ratio : 1.375
Frame rate : 25.000 fps
Resolution : 24 bits
Colorimetry : 4:2:0
Scan type : Progressive
Bits/(Pixel*Frame) : 0.095
Stream size : 774 MiB (86%)
Writing library : XviD 1.2.0.dev47 (UTC 2006-11-01)

Audio
Format : MPEG Audio
Format version : Version 1
Format profile : Layer 3
Codec ID : 55
Codec ID/Hint : MP3
Duration : 2h 6mn
Bit rate mode : Constant
Bit rate : 128 Kbps
Minimum bit rate : 128 Kbps
Channel(s) : 2 channels
Sampling rate : 48.0 KHz
Resolution : 16 bits
Stream size : 115 MiB (13%)
Alignment : Aligned on interleaves
Interleave, duration : 40 ms (1.00 video frame)
Interleave, preload duration : 504 ms
Writing library : LAME3.97
Encoding settings : CBR

related torrents

Torrent name

health leech seeds Size
 


comments (0)

Main Menu