Metal

Killing Touch One of a Kind (2009) EAC FLAC

  • Download 5x Faster
  • Download torrent
  • Direct Download
  • Rate this torrent +  |  -
Killing Touch One of a Kind (2009) EAC FLAC

Free and Direct Download with Usenet 300GB+ free


Torrent info

Name:Killing Touch One of a Kind (2009) EAC FLAC

Total Size: 464.50 MB

Magnet: Magnet Link

Seeds: 1

Leechers: 2

Stream: Watch Online @ Movie4u

Last Updated: 2010-08-14 11:01:58 (Update Now)

Torrent added: 2009-08-24 07:49:24




Torrent Files List


One Of A Kind.log (Size: 464.50 MB) (Files: 14)

 One Of A Kind.log

5.34 KB

 folder.jpg

227.94 KB

 Killing Touch - One Of A Kind - 02 - Black Ice.flac

5.65 MB

 Killing Touch - One Of A Kind - 11 - Justify.flac

33.01 MB

 Killing Touch - One Of A Kind - 08 - Still Walking.flac

34.73 MB

 Killing Touch - One Of A Kind - 10 - Falling Away.flac

36.10 MB

 Killing Touch - One Of A Kind - 03 - Wheel Of Fortune.flac

37.55 MB

 Killing Touch - One Of A Kind - 07 - Tommy's Cane.flac

42.65 MB

 Killing Touch - One Of A Kind - 05 - The Danger Zone.flac

42.91 MB

 Killing Touch - One Of A Kind - 06 - One Of A Kind.flac

44.79 MB

 Killing Touch - One Of A Kind - 09 - Walls Of Sympathy.flac

45.25 MB

 Killing Touch - One Of A Kind - 01 - The Touch.flac

46.15 MB

 Killing Touch - One Of A Kind - 12 - Thy Will Be Done.flac

47.60 MB

 Killing Touch - One Of A Kind - 04 - Mimicking Death.flac

47.86 MB
 

Announce URL: http://open.tracker.thepiratebay.org/announce

Torrent description

EAC FLAC rip from my brand new CD.
Enjoy!




Exact Audio Copy V0.99 prebeta 4 from 23. January 2008

EAC extraction logfile from 8. July 2009, 14:28

Killing Touch / One Of A Kind

Used drive : HL-DT-STDVD-RAM GSA-H55N Adapter: 0 ID: 0

Read mode : Secure
Utilize accurate stream : Yes
Defeat audio cache : No
Make use of C2 pointers : No

Read offset correction : 102
Overread into Lead-In and Lead-Out : No
Fill up missing offset samples with silence : Yes
Delete leading and trailing silent blocks : No
Null samples used in CRC calculations : No
Used interface : Native Win32 interface for Win NT & 2000
Gap handling : Not detected, thus appended to previous track

Used output format : User Defined Encoder
Selected bitrate : 768 kBit/s
Quality : High
Add ID3 tag : No
Command line compressor : C:\Arquivos de programas\Exact Audio Copy\FLAC\FLAC.EXE
Additional command line options : -6 -V -T "ARTIST=%a" -T "TITLE=%t" -T "ALBUM=%g" -T "DATE=%y" -T "TRACKNUMBER=%n" -T "GENRE=%m" -T "COMMENT=%e" %s -o %d


TOC of the extracted CD

Track | Start | Length | Start sector | End sector
---------------------------------------------------------
1 | 0:00.00 | 6:27.50 | 0 | 29074
2 | 6:27.50 | 0:49.09 | 29075 | 32758
3 | 7:16.59 | 4:39.31 | 32759 | 53714
4 | 11:56.15 | 6:25.24 | 53715 | 82613
5 | 18:21.39 | 6:01.00 | 82614 | 109688
6 | 24:22.39 | 6:27.25 | 109689 | 138738
7 | 30:49.64 | 5:41.65 | 138739 | 164378
8 | 36:31.54 | 8:14.63 | 164379 | 201491
9 | 44:46.42 | 5:53.70 | 201492 | 228036
10 | 50:40.37 | 4:47.38 | 228037 | 249599
11 | 55:28.00 | 4:28.11 | 249600 | 269710
12 | 59:56.11 | 6:27.13 | 269711 | 298748


Track 1

Filename D:\Músicas\Metal\Killing Touch - One of a Kind\Killing Touch - One Of A Kind - 01 - The Touch.wav

Peak level 96.6 %
Track quality 100.0 %
Copy CRC 3610D354
Track not present in AccurateRip database
Copy OK

Track 2

Filename D:\Músicas\Metal\Killing Touch - One of a Kind\Killing Touch - One Of A Kind - 02 - Black Ice.wav

Peak level 95.4 %
Track quality 100.0 %
Copy CRC 514BA002
Track not present in AccurateRip database
Copy OK

Track 3

Filename D:\Músicas\Metal\Killing Touch - One of a Kind\Killing Touch - One Of A Kind - 03 - Wheel Of Fortune.wav

Peak level 96.6 %
Track quality 100.0 %
Copy CRC FF28EC05
Track not present in AccurateRip database
Copy OK

Track 4

Filename D:\Músicas\Metal\Killing Touch - One of a Kind\Killing Touch - One Of A Kind - 04 - Mimicking Death.wav

Peak level 96.6 %
Track quality 100.0 %
Copy CRC 95B59132
Track not present in AccurateRip database
Copy OK

Track 5

Filename D:\Músicas\Metal\Killing Touch - One of a Kind\Killing Touch - One Of A Kind - 05 - The Danger Zone.wav

Peak level 96.6 %
Track quality 100.0 %
Copy CRC 389C69AA
Track not present in AccurateRip database
Copy OK

Track 6

Filename D:\Músicas\Metal\Killing Touch - One of a Kind\Killing Touch - One Of A Kind - 06 - One Of A Kind.wav

Peak level 96.6 %
Track quality 100.0 %
Copy CRC 62487F00
Track not present in AccurateRip database
Copy OK

Track 7

Filename D:\Músicas\Metal\Killing Touch - One of a Kind\Killing Touch - One Of A Kind - 07 - Tommy's Cane.wav

Peak level 96.6 %
Track quality 100.0 %
Copy CRC 53CC4F26
Track not present in AccurateRip database
Copy OK

Track 8

Filename D:\Músicas\Metal\Killing Touch - One of a Kind\Killing Touch - One Of A Kind - 08 - Still Walking.wav

Peak level 97.0 %
Track quality 100.0 %
Copy CRC 2F4EBA06
Track not present in AccurateRip database
Copy OK

Track 9

Filename D:\Músicas\Metal\Killing Touch - One of a Kind\Killing Touch - One Of A Kind - 09 - Walls Of Sympathy.wav

Peak level 96.9 %
Track quality 100.0 %
Copy CRC B3F26826
Track not present in AccurateRip database
Copy OK

Track 10

Filename D:\Músicas\Metal\Killing Touch - One of a Kind\Killing Touch - One Of A Kind - 10 - Falling Away.wav

Peak level 96.6 %
Track quality 100.0 %
Copy CRC 5893493E
Track not present in AccurateRip database
Copy OK

Track 11

Filename D:\Músicas\Metal\Killing Touch - One of a Kind\Killing Touch - One Of A Kind - 11 - Justify.wav

Peak level 96.6 %
Track quality 100.0 %
Copy CRC B60B152A
Track not present in AccurateRip database
Copy OK

Track 12

Filename D:\Músicas\Metal\Killing Touch - One of a Kind\Killing Touch - One Of A Kind - 12 - Thy Will Be Done.wav

Peak level 96.6 %
Track quality 99.9 %
Copy CRC E22DC3A3
Track not present in AccurateRip database
Copy OK


None of the tracks are present in the AccurateRip database

No errors occurred

End of status report

related torrents

Torrent name

health leech seeds Size
 

comments (0)

Main Menu