TV - Other

TOPCAT VOLUME 2[DVDRIP][ENG] KIDZCORNER&J T R

  • Download 5x Faster
  • Download torrent
  • Direct Download
  • Rate this torrent +  |  -
TOPCAT VOLUME 2[DVDRIP][ENG] KIDZCORNER&J T R

Anonymous and Free Direct Download 300GB+


Torrent info

Name:TOPCAT VOLUME 2[DVDRIP][ENG] KIDZCORNER&J T R

Total Size: 1.39 GB

Magnet: Magnet Link

Seeds: 0

Leechers: 0

Stream: Watch Online @ Movie4u

Last Updated: 2010-09-23 16:22:39 (Update Now)

Torrent added: 2009-08-24 07:41:51



VPN For Torrents

Torrent Files List


Tracked by moviesb4time.biz.txt (Size: 1.39 GB) (Files: 4)

 Tracked by moviesb4time.biz.txt

1.35 KB

 Torrent downloaded from Demonoid.com-1.txt

0.05 KB

 832802_DV_L_F.JPG

32.00 KB

 TOP_CAT_VOLUME_2

  TITLE01.avi

1.39 GB
 

Announce URL: http://inferno.demonoid.com:3406/announce

Torrent description

Smooth-talking New York City Cat 'Top Cat' And His Kitty Cohorts Are On The Run, With The Bothersome Officer Dibble Always On Their Tales.

Episodes:

01. Top Cat Falls In Love.
02. A Visit From Mother.
03. Naked Town.
04. Sargent Top Cat.
05. Choo-Choo's Romance.
06. The Unscratchables.

General
Complete name : C:\Users\joker\Documents\TOPCAT-VOLUME 2[DVDRIP][ENG]-KIDZCORNER&J.T.R\TOP_CAT_VOLUME_2\TITLE01.avi
Format : AVI
Format/Info : Audio Video Interleave
File size : 1.39 GiB
Duration : 2h 28mn
Overall bit rate : 1 338 Kbps

Video
Format : MPEG-4 Visual
Format profile : [email protected]
Format settings, BVOP : No
Format settings, QPel : No
Format settings, GMC : No warppoints
Format settings, Matrix : Default
Codec ID : XVID
Codec ID/Hint : XviD
Duration : 2h 28mn
Bit rate : 1 198 Kbps
Width : 640 pixels
Height : 480 pixels
Display aspect ratio : 4/3
Frame rate : 25.000 fps
Resolution : 24 bits
Colorimetry : 4:2:0
Scan type : Progressive
Bits/(Pixel*Frame) : 0.156
Stream size : 1.24 GiB (90%)
Writing library : Magic0432

Audio
Format : MPEG Audio
Format version : Version 1
Format profile : Layer 3
Codec ID : 55
Codec ID/Hint : MP3
Duration : 2h 28mn
Bit rate mode : Constant
Bit rate : 128 Kbps
Channel(s) : 2 channels
Sampling rate : 44.1 KHz
Resolution : 16 bits
Stream size : 136 MiB (10%)
Alignment : Aligned on interleaves
Interleave, duration : 26 ms (0.65 video frame)
Writing library : LAME3.97

related torrents

Torrent name

health leech seeds Size
 


comments (0)

Main Menu