TV - Other

TOP CAT=THE COMPLETE SERIES VOLUME 1[DVDRIP][ENG] KIDZCORNER&J T R

  • Download 5x Faster
  • Download torrent
  • Direct Download
  • Rate this torrent +  |  -


Torrent info

Name:TOP CAT=THE COMPLETE SERIES VOLUME 1[DVDRIP][ENG] KIDZCORNER&J T R

Total Size: 799.68 MB

Magnet: Magnet Link

Seeds: 0

Leechers: 0

Stream: Watch Online @ Movie4u

Last Updated: 2010-12-22 23:02:05 (Update Now)

Torrent added: 2009-08-24 07:37:57



VPN For Torrents

Torrent Files List


Tracked by moviesb4time.biz.txt (Size: 799.68 MB) (Files: 5)

 Tracked by moviesb4time.biz.txt

1.35 KB

 804772_DV_L_F.JPG

31.18 KB

 TCVOL1.avi

799.62 MB

 Torrent downloaded from Demonoid.com-1.txt

0.05 KB

 804772_DV_L_B.JPG

27.50 KB
 

Announce URL: http://tracker.torrentbox.com:2710/announce

Torrent description

Episodes:

01. Hawaii Here We Come.
02. The Maharajah Of Pookajee.
03. All That Jazz.
04. The $1,000,000 Derby.
05. The Violin Player.
06. The Missing Heir.

General
Complete name : C:\Users\joker\Documents\TOP CAT=THE COMPLETE SERIES-VOLUME 1[DVDRIP][ENG]-KIDZCORNER&J.T.R\TCVOL1.avi
Format : AVI
Format/Info : Audio Video Interleave
File size : 800 MiB
Duration : 2h 28mn
Overall bit rate : 754 Kbps
Writing application : FairUse Wizard - http://fairusewizard.com
Writing library : The best and REALLY easy backup tool

Video
Format : MPEG-4 Visual
Format profile : [email protected]
Format settings, BVOP : No
Format settings, QPel : No
Format settings, GMC : No warppoints
Format settings, Matrix : Default
Codec ID : XVID
Codec ID/Hint : XviD
Duration : 2h 28mn
Bit rate : 616 Kbps
Width : 704 pixels
Height : 512 pixels
Display aspect ratio : 1.375
Frame rate : 25.000 fps
Resolution : 24 bits
Colorimetry : 4:2:0
Scan type : Progressive
Bits/(Pixel*Frame) : 0.068
Stream size : 654 MiB (82%)
Writing library : XviD 1.2.0.dev47 (UTC 2006-11-01)

Audio
Format : MPEG Audio
Format version : Version 1
Format profile : Layer 3
Codec ID : 55
Codec ID/Hint : MP3
Duration : 2h 28mn
Bit rate mode : Constant
Bit rate : 128 Kbps
Minimum bit rate : 128 Kbps
Channel(s) : 2 channels
Sampling rate : 48.0 KHz
Resolution : 16 bits
Stream size : 136 MiB (17%)
Alignment : Aligned on interleaves
Interleave, duration : 40 ms (1.00 video frame)
Interleave, preload duration : 504 ms
Writing library : LAME3.97
Encoding settings : CBR

related torrents

Torrent name

health leech seeds Size
 


comments (0)

Main Menu