TV - Other

TOM&JERRY THE MAGIC RING[DVDRIP][ENG] KIDZCORNER&J T R

  • Download 5x Faster
  • Download torrent
  • Direct Download
  • Rate this torrent +  |  -
TOM&JERRY THE MAGIC RING[DVDRIP][ENG] KIDZCORNER&J T R

Free and Direct Download with Usenet.nl 300GB+ free


Torrent info

Name:TOM&JERRY THE MAGIC RING[DVDRIP][ENG] KIDZCORNER&J T R

Total Size: 572.84 MB

Magnet: Magnet Link

Seeds: 0

Leechers: 0

Stream: Watch Online @ Movie4u

Last Updated: 2016-01-28 14:44:28 (Update Now)

Torrent added: 2009-08-24 07:36:56





Torrent Files List


Tracked by moviesb4time.biz.txt (Size: 572.84 MB) (Files: 4)

 Tracked by moviesb4time.biz.txt

1.35 KB

 Torrent downloaded from Demonoid.com-1.txt

0.05 KB

 f cover.jpg

33.03 KB

 TOM_AND_JERRY_THE_MAGIC_RING

  TITLE01.avi

572.80 MB
 

tracker

leech seeds
 

Torrent description

The world's favorite cat-and-mouse team bounds back into action in an all-new animated adventure certain to cast its spell over the entire family! Left in charge of a magical ring by his young wizard master, Tom is horrified when the ring gets stuck on Jerry's head and the little mouse takes off into the big city!

General
Complete name : C:\Users\joker\Documents\TOM&JERRY-THE MAGIC RING[DVDRIP][ENG]-KIDZCORNER&J.T.R\TOM_AND_JERRY_THE_MAGIC_RING\TITLE01.avi
Format : AVI
Format/Info : Audio Video Interleave
File size : 573 MiB
Duration : 59mn 48s
Overall bit rate : 1 339 Kbps

Video
Format : MPEG-4 Visual
Format profile : [email protected]
Format settings, BVOP : No
Format settings, QPel : No
Format settings, GMC : No warppoints
Format settings, Matrix : Default
Codec ID : XVID
Codec ID/Hint : XviD
Duration : 59mn 48s
Bit rate : 1 199 Kbps
Width : 640 pixels
Height : 480 pixels
Display aspect ratio : 4/3
Frame rate : 25.000 fps
Resolution : 24 bits
Colorimetry : 4:2:0
Scan type : Progressive
Bits/(Pixel*Frame) : 0.156
Stream size : 513 MiB (90%)
Writing library : Magic0432

Audio
Format : MPEG Audio
Format version : Version 1
Format profile : Layer 3
Codec ID : 55
Codec ID/Hint : MP3
Duration : 59mn 48s
Bit rate mode : Constant
Bit rate : 128 Kbps
Channel(s) : 2 channels
Sampling rate : 44.1 KHz
Resolution : 16 bits
Stream size : 54.7 MiB (10%)
Alignment : Aligned on interleaves
Interleave, duration : 26 ms (0.65 video frame)

related torrents

Torrent name

health leech seeds Size
 

comments (0)

Main Menu