TV - Other

TOM&JERRY TALES VOLUME THREE[DVDRIP][ENG] KIDZCORNER

  • Download 5x Faster
  • Download torrent
  • Direct Download
  • Rate this torrent +  |  -
TOM&JERRY TALES VOLUME THREE[DVDRIP][ENG] KIDZCORNER

Free and Direct Download with Usenet.nl 300GB+ free


Torrent info

Name:TOM&JERRY TALES VOLUME THREE[DVDRIP][ENG] KIDZCORNER

Total Size: 819.70 MB

Magnet: Magnet Link

Seeds: 1

Leechers: 3

Stream: Watch Online @ Movie4u

Last Updated: 2010-09-25 07:25:54 (Update Now)

Torrent added: 2009-08-24 07:36:47





Torrent Files List


Torrent downloaded from Demonoid.com.txt (Size: 819.70 MB) (Files: 3)

 Torrent downloaded from Demonoid.com.txt

0.05 KB

 front.jpg

43.91 KB

 T_AND_J-_3

  TITLE01.avi

819.66 MB
 

Announce URL: http://inferno.demonoid.com:3408/announce

Torrent description

Fancatstic dinosauring adventures starring the world's favorite cat-and-mouse duo. With a Special Bonus Episode included, there's now a fabulous 15 cartoons in this volume of the cat-and-mouse team's latest and greatest adventures. Look out for ghastly ghosts and menacing mummies and laugh so hard you'll be in prehysterics when Tom and Jerry encounter everything from dimwitted dinosaurs and cranky cavemen to robot cats and oddball aliens. Feline fur's gonna fly â€" and so will an awful lot of fun for fans all ages!

General
Complete name : C:\Users\joker\Documents\TOM&JERRY TALES-VOLUME THREE[DVDRIP][ENG]-KIDZCORNER\T_AND_J-_3\TITLE01.avi
Format : AVI
Format/Info : Audio Video Interleave
File size : 820 MiB
Duration : 1h 25mn
Overall bit rate : 1 335 Kbps

Video
Format : MPEG-4 Visual
Format profile : [email protected]
Format settings, BVOP : No
Format settings, QPel : No
Format settings, GMC : No warppoints
Format settings, Matrix : Default
Codec ID : XVID
Codec ID/Hint : XviD
Duration : 1h 25mn
Bit rate : 1 195 Kbps
Width : 640 pixels
Height : 480 pixels
Display aspect ratio : 4/3
Frame rate : 25.000 fps
Resolution : 24 bits
Colorimetry : 4:2:0
Scan type : Progressive
Bits/(Pixel*Frame) : 0.156
Stream size : 734 MiB (89%)
Writing library : Magic0432

Audio
Format : MPEG Audio
Format version : Version 1
Format profile : Layer 3
Codec ID : 55
Codec ID/Hint : MP3
Duration : 1h 25mn
Bit rate mode : Constant
Bit rate : 128 Kbps
Channel(s) : 2 channels
Sampling rate : 44.1 KHz
Resolution : 16 bits
Stream size : 78.6 MiB (10%)
Alignment : Aligned on interleaves
Interleave, duration : 26 ms (0.65 video frame)
Writing library : LAME3.97

related torrents

Torrent name

health leech seeds Size
 

comments (0)

Main Menu