TV - Other

TOM&JERRY TALES VOLUME 2 DVDRIP][ENG] KIDZCORNER

  • Download 5x Faster
  • Download torrent
  • Direct Download
  • Rate this torrent +  |  -


Torrent info

Name:TOM&JERRY TALES VOLUME 2 DVDRIP][ENG] KIDZCORNER

Total Size: 699.04 MB

Magnet: Magnet Link

Seeds: 3

Leechers: 3

Stream: Watch Full Movie @ Movie4u

Last Updated: 2011-01-01 12:18:31 (Update Now)

Torrent added: 2009-08-24 07:36:42



VPN For Torrents

Torrent Files List


Torrent downloaded from Demonoid.com-1.txt (Size: 699.04 MB) (Files: 3)

 Torrent downloaded from Demonoid.com-1.txt

0.05 KB

 DISC 1.avi

699.00 MB

 3471575x.jpg

39.16 KB
 

Announce URL: http://inferno.demonoid.com:3407/announce

Torrent description

Octo Suave
Beach Bully Bingo
Treasure Map Scrap
Fire Breathing Tomcat
Medievel Menace
The Itch
Digital Dilemma
Hi Robot
Tomcat Jetpack
Piranha Be Loved
Spook House Mouse
Abracadumb

----------
General
Complete name : C:\Users\joker\Documents\TOM&JERRY TALES-VOLUME 2-DVDRIP][ENG]-KIDZCORNER\DISC 1.avi
Format : AVI
Format/Info : Audio Video Interleave
File size : 699 MiB
Duration : 1h 48mn
Overall bit rate : 900 Kbps
Writing application : FairUse Wizard - http://fairusewizard.com
Writing library : The best and REALLY easy backup tool

Video
Format : MPEG-4 Visual
Format profile : [email protected]
Format settings, BVOP : No
Format settings, QPel : No
Format settings, GMC : No warppoints
Format settings, Matrix : Default
Codec ID : XVID
Codec ID/Hint : XviD
Duration : 1h 48mn
Bit rate : 762 Kbps
Width : 704 pixels
Height : 512 pixels
Display aspect ratio : 1.375
Frame rate : 25.000 fps
Resolution : 24 bits
Colorimetry : 4:2:0
Scan type : Progressive
Bits/(Pixel*Frame) : 0.085
Stream size : 592 MiB (85%)
Writing library : XviD 1.2.0.dev47 (UTC 2006-11-01)

Audio
Format : MPEG Audio
Format version : Version 1
Format profile : Layer 3
Codec ID : 55
Codec ID/Hint : MP3
Duration : 1h 48mn
Bit rate mode : Constant
Bit rate : 128 Kbps
Minimum bit rate : 128 Kbps
Channel(s) : 2 channels
Sampling rate : 48.0 KHz
Resolution : 16 bits
Stream size : 99.4 MiB (14%)
Alignment : Aligned on interleaves
Interleave, duration : 40 ms (1.00 video frame)
Interleave, preload duration : 504 ms
Writing library : LAME3.97
Encoding settings : CBR

related torrents

Torrent name

health leech seeds Size
 


comments (0)

Main Menu

 

script data-cfasync="false" src="//d2ghscazvn398x.cloudfront.net/?cshgd=690275">