TV - Other

TOM&JERRY TALES VOLUME [email protected] RIP

  • Download 5x Faster
  • Download torrent
  • Direct Download
  • Rate this torrent +  |  -

Torrent info

Name:TOM&JERRY TALES VOLUME [email protected] RIP

Total Size: 830.55 MB

Magnet: Magnet Link

Seeds: 1

Leechers: 5

Stream: Watch Online @ Movie4u

Last Updated: 2010-11-30 20:35:59 (Update Now)

Torrent added: 2009-08-24 07:36:31



VPN For Torrents

Torrent Files List


Torrent downloaded from Demonoid.com-2.txt (Size: 830.55 MB) (Files: 3)

 Torrent downloaded from Demonoid.com-2.txt

0.05 KB

 T_AND_J_TALES_VOL 4.avi

830.51 MB

 5368975x.jpg

38.04 KB
 

Announce URL: http://inferno.demonoid.com:3408/announce

Torrent description

This show features 78 brand new Tom and Jerry adventures that bring back the old spirit of the original show with the familliar chasing, scheming, and pranks that everyone knows so well.

Volume 4, of this classic cartoon, finds Tom chasing Jerry through a variety of locations from a Sultan's palace to the jungles of Africa. The duo even get super powers in three of the shorts taking their classic chase to new heights!

General
Complete name : C:\Users\joker\Documents\TOM&JERRY TALES VOLUME [email protected] RIP\T_AND_J_TALES_VOL 4.avi
Format : AVI
Format/Info : Audio Video Interleave
File size : 831 MiB
Duration : 1h 26mn
Overall bit rate : 1 336 Kbps

Video
Format : MPEG-4 Visual
Format profile : [email protected]
Format settings, BVOP : No
Format settings, QPel : No
Format settings, GMC : No warppoints
Format settings, Matrix : Default
Codec ID : XVID
Codec ID/Hint : XviD
Duration : 1h 26mn
Bit rate : 1 196 Kbps
Width : 640 pixels
Height : 480 pixels
Display aspect ratio : 4/3
Frame rate : 25.000 fps
Resolution : 24 bits
Colorimetry : 4:2:0
Scan type : Progressive
Bits/(Pixel*Frame) : 0.156
Stream size : 743 MiB (90%)
Writing library : Magic0432

Audio
Format : MPEG Audio
Format version : Version 1
Format profile : Layer 3
Codec ID : 55
Codec ID/Hint : MP3
Duration : 1h 26mn
Bit rate mode : Constant
Bit rate : 128 Kbps
Channel(s) : 2 channels
Sampling rate : 44.1 KHz
Resolution : 16 bits
Stream size : 79.6 MiB (10%)
Alignment : Aligned on interleaves
Interleave, duration : 26 ms (0.65 video frame)
Writing library : LAME3.97

related torrents

Torrent name

health leech seeds Size
 


comments (0)

Main Menu