TV - Other

TOM&JERRY COLLECTION VOLUME 5 DISC 2[DVDRIP][ENG] KIDZCORNER

  • Download 5x Faster
  • Download torrent
  • Direct Download
  • Rate this torrent +  |  -
TOM&JERRY COLLECTION VOLUME 5 DISC 2[DVDRIP][ENG] KIDZCORNER

Free and Direct Download with Usenet 300GB+ free


Torrent info

Name:TOM&JERRY COLLECTION VOLUME 5 DISC 2[DVDRIP][ENG] KIDZCORNER

Total Size: 877.82 MB

Magnet: Magnet Link

Seeds: 3

Leechers: 1

Stream: Watch Online @ Movie4u

Last Updated: 2010-11-26 14:44:00 (Update Now)

Torrent added: 2009-08-24 07:36:26




Torrent Files List


Torrent downloaded from Demonoid.com.txt (Size: 877.82 MB) (Files: 3)

 Torrent downloaded from Demonoid.com.txt

0.05 KB

 TOM_N_JERRY_VOL5D2.avi

877.79 MB

 t7jvol5.jpg

35.32 KB
 

Announce URL: http://inferno.demonoid.com:3408/announce

Torrent description

the 2nd disc episodes:

13. It's Greek
To Me-ow
14. High Streaks
15. Mouse In Space
16. Landing Stripling
17. Calypso Cat
18. Dicky Moe
19. The Tom & Jerry Cartoon Kit
20. Tall In The Trap
21. Sorry Safari
22. Buddies Thicker Than Water
23. Carmen Get It!

-------------------------------------------------

General
Complete name : C:\Users\joker\Documents\TOM&JERRY COLLECTION-VOLUME 5 -DISC 2[DVDRIP][ENG]-KIDZCORNER\TOM_N_JERRY_VOL5D2.avi
Format : AVI
Format/Info : Audio Video Interleave
File size : 878 MiB
Duration : 1h 31mn
Overall bit rate : 1 340 Kbps

Video
Format : MPEG-4 Visual
Format profile : [email protected]
Format settings, BVOP : No
Format settings, QPel : No
Format settings, GMC : No warppoints
Format settings, Matrix : Default
Codec ID : XVID
Codec ID/Hint : XviD
Duration : 1h 31mn
Bit rate : 1 200 Kbps
Width : 640 pixels
Height : 480 pixels
Display aspect ratio : 4/3
Frame rate : 25.000 fps
Resolution : 24 bits
Colorimetry : 4:2:0
Scan type : Progressive
Bits/(Pixel*Frame) : 0.156
Stream size : 786 MiB (90%)
Writing library : Magic0432

Audio
Format : MPEG Audio
Format version : Version 1
Format profile : Layer 3
Codec ID : 55
Codec ID/Hint : MP3
Duration : 1h 31mn
Bit rate mode : Constant
Bit rate : 128 Kbps
Channel(s) : 2 channels
Sampling rate : 44.1 KHz
Resolution : 16 bits
Stream size : 83.8 MiB (10%)
Alignment : Aligned on interleaves
Interleave, duration : 26 ms (0.65 video frame)
Writing library : LAME3.97

related torrents

Torrent name

health leech seeds Size
 

comments (0)

Main Menu