TV - Other

TOM&JERRY COLLECTION VOLUME 5 DISC 1[DVDRIP][ENG] KIDZCORNER

  • Download 5x Faster
  • Download torrent
  • Direct Download
  • Rate this torrent +  |  -

Torrent info

Name:TOM&JERRY COLLECTION VOLUME 5 DISC 1[DVDRIP][ENG] KIDZCORNER

Total Size: 626.93 MB

Magnet: Magnet Link

Seeds: 0

Leechers: 0

Stream: Watch Online @ Movie4u

Last Updated: 2011-10-27 00:53:40 (Update Now)

Torrent added: 2009-08-24 07:36:21



VPN For Torrents

Torrent Files List


Torrent downloaded from Demonoid.com-1.txt (Size: 626.93 MB) (Files: 3)

 Torrent downloaded from Demonoid.com-1.txt

0.05 KB

 TOM_AND_JERRY_VOLUME5D1.avi

626.90 MB

 t7jvol5.jpg

35.32 KB
 

Announce URL:

Torrent description

Animated adventures with Tom and Jerry!

Episodes comprise:
1. Tops With Pops
2. Timid Tabby
3. Feedin' The Kiddie
4. Mucho Mouse
5. Tom's Photo Finish
6. Happy Go Ducky
7. Royal Cat Nap
8. The Vanishing Duck
9. Robin Hoodwinked
10. Tot Watchers
11. Switchin' Kitten
12. Down And Outing

General
Complete name : C:\Users\joker\Documents\TOM&JERRY COLLECTION-VOLUME 5 -DISC 1[DVDRIP][ENG]-KIDZCORNER\TOM_AND_JERRY_VOLUME5D1.avi
Format : AVI
Format/Info : Audio Video Interleave
File size : 627 MiB
Duration : 1h 5mn
Overall bit rate : 1 340 Kbps

Video
Format : MPEG-4 Visual
Format profile : [email protected]
Format settings, BVOP : No
Format settings, QPel : No
Format settings, GMC : No warppoints
Format settings, Matrix : Default
Codec ID : XVID
Codec ID/Hint : XviD
Duration : 1h 5mn
Bit rate : 1 200 Kbps
Width : 640 pixels
Height : 480 pixels
Display aspect ratio : 4/3
Frame rate : 25.000 fps
Resolution : 24 bits
Colorimetry : 4:2:0
Scan type : Progressive
Bits/(Pixel*Frame) : 0.156
Stream size : 561 MiB (90%)
Writing library : Magic0432

Audio
Format : MPEG Audio
Format version : Version 1
Format profile : Layer 3
Codec ID : 55
Codec ID/Hint : MP3
Duration : 1h 5mn
Bit rate mode : Constant
Bit rate : 128 Kbps
Channel(s) : 2 channels
Sampling rate : 44.1 KHz
Resolution : 16 bits
Stream size : 59.9 MiB (10%)
Alignment : Aligned on interleaves
Interleave, duration : 26 ms (0.65 video frame)
Writing library : LAME3.97

related torrents

Torrent name

health leech seeds Size
 


comments (0)

Main Menu