TV - Other

TOM&JERRY COLLECTION VOLUME 4 DISC 2[DVDRIP][ENG] KIDZCORNER

  • Download 5x Faster
  • Download torrent
  • Direct Download
  • Rate this torrent +  |  -
TOM&JERRY COLLECTION VOLUME 4 DISC 2[DVDRIP][ENG] KIDZCORNER

Free and Direct Download with Usenet 300GB+ free


Torrent info

Name:TOM&JERRY COLLECTION VOLUME 4 DISC 2[DVDRIP][ENG] KIDZCORNER

Total Size: 809.63 MB

Magnet: Magnet Link

Seeds: 0

Leechers: 1

Stream: Watch Online @ Movie4u

Last Updated: 2010-12-19 19:25:32 (Update Now)

Torrent added: 2009-08-24 07:36:10




Torrent Files List


Tracked by moviesb4time.biz.txt (Size: 809.63 MB) (Files: 4)

 Tracked by moviesb4time.biz.txt

1.35 KB

 Torrent downloaded from Demonoid.com.txt

0.05 KB

 T_N_J_D2_.avi

809.58 MB

 51XS3NJ0CAL._SS500_.jpg

50.60 KB
 

Announce URL: http://tracker.publicbt.com/announce

Torrent description

disc 2 off 2 12 episodes

the 2 discs include the classic 'Two Little Indians' plus 23 classic Tom and Jerry cartoons: Life With Tom, Puppy Tale, Posse Cat, Hic-cup Pup, Little School Mouse, Baby Butch, Mice Follies, Neapolitan House, Downhearted Duckling, Pet Peeve, Touche Pussy Cat, Southbound Duckling, Pup On a Picnic, Mouse For Sale, Designs on Jerry, Tom & Cherie, Smarty Cat, Pecos Pest, That's My Mommy, The Flying Sorceress, The Egg and Jerry, Muscle Beach Tom, Downbeat Bear, Barbecue Brawl.

General
Complete name : C:\Users\joker\Documents\TOM&JERRY COLLECTION-VOLUME 4 -DISC 2[DVDRIP][ENG]-KIDZCORNER\T_N_J_D2_.avi
Format : AVI
Format/Info : Audio Video Interleave
File size : 810 MiB
Duration : 1h 24mn
Overall bit rate : 1 340 Kbps

Video
Format : MPEG-4 Visual
Format profile : [email protected]
Format settings, BVOP : No
Format settings, QPel : No
Format settings, GMC : No warppoints
Format settings, Matrix : Default
Codec ID : XVID
Codec ID/Hint : XviD
Duration : 1h 24mn
Bit rate : 1 200 Kbps
Width : 640 pixels
Height : 480 pixels
Display aspect ratio : 4/3
Frame rate : 25.000 fps
Resolution : 24 bits
Colorimetry : 4:2:0
Scan type : Progressive
Bits/(Pixel*Frame) : 0.156
Stream size : 725 MiB (90%)
Writing library : Magic0432

Audio
Format : MPEG Audio
Format version : Version 1
Format profile : Layer 3
Codec ID : 55
Codec ID/Hint : MP3
Duration : 1h 24mn
Bit rate mode : Constant
Bit rate : 128 Kbps
Channel(s) : 2 channels
Sampling rate : 44.1 KHz
Resolution : 16 bits
Stream size : 77.3 MiB (10%)
Alignment : Aligned on interleaves
Interleave, duration : 26 ms (0.65 video frame)

related torrents

Torrent name

health leech seeds Size
 

comments (0)

Main Menu