TV - Other

TOM&JERRY COLLECTION VOLUME 3 DISC 1[episodes1 12] [DVDRIP][ENG] KIDZCORNER&J T R

  • Download 5x Faster
  • Download torrent
  • Direct Download
  • Rate this torrent +  |  -

Torrent info

Name:TOM&JERRY COLLECTION VOLUME 3 DISC 1[episodes1 12] [DVDRIP][ENG] KIDZCORNER&J T R

Total Size: 834.44 MB

Magnet: Magnet Link

Seeds: 0

Leechers: 0

Stream: Watch Online @ Movie4u

Last Updated: 2011-10-27 00:53:02 (Update Now)

Torrent added: 2009-08-24 07:35:50



VPN For Torrents

Torrent Files List


Tracked by moviesb4time.biz.txt (Size: 834.44 MB) (Files: 4)

 Tracked by moviesb4time.biz.txt

1.35 KB

 Torrent downloaded from Demonoid.com.txt

0.05 KB

 562740_DV_L_F.JPG

34.52 KB

 TOM_AND_JERRY_VOLUME3d1

  TITLE01.avi

834.41 MB
 

Announce URL:

Torrent description

Tom and Jerry have been capturing the laughter and hearts of children and adults alike around the world for decades. Now the unstoppable duo are back, this time with brand new compilations of their fun-filled frolics that start from the very beginning.

Volume 3 episodes:
Tom And Jerry In The Hollywood Bowl
The Framed Cat
Cue Ball Cat
Casanova Cat
Jerry And The Goldfish
Jerry's Cousin
Sleepy-Time Tom
His Mouse Friday
Slicked-Up Pup
Nit-Witty Kitty
Cat Napping
The Flying Cat


General
Complete name : C:\Users\joker\Documents\TOM&JERRY-VOLUME3-DISC 2[DVDRIP][ENG]-KIDZCORNER&J.T.R\TOM_N_JERRY_VOL6_F5B\TITLE01.avi
Format : AVI
Format/Info : Audio Video Interleave
File size : 843 MiB
Duration : 1h 27mn
Overall bit rate : 1 340 Kbps

Video
Format : MPEG-4 Visual
Format profile : [email protected]
Format settings, BVOP : No
Format settings, QPel : No
Format settings, GMC : No warppoints
Format settings, Matrix : Default
Codec ID : XVID
Codec ID/Hint : XviD
Duration : 1h 27mn
Bit rate : 1 200 Kbps
Width : 640 pixels
Height : 480 pixels
Display aspect ratio : 4/3
Frame rate : 25.000 fps
Resolution : 24 bits
Colorimetry : 4:2:0
Scan type : Progressive
Bits/(Pixel*Frame) : 0.156
Stream size : 755 MiB (90%)
Writing library : Magic0432

Audio
Format : MPEG Audio
Format version : Version 1
Format profile : Layer 3
Codec ID : 55
Codec ID/Hint : MP3
Duration : 1h 27mn
Bit rate mode : Constant
Bit rate : 128 Kbps
Channel(s) : 2 channels
Sampling rate : 44.1 KHz
Resolution : 16 bits
Stream size : 80.6 MiB (10%)
Alignment : Aligned on interleaves
Interleave, duration : 26 ms (0.65 video frame)

related torrents

Torrent name

health leech seeds Size
 


comments (0)

Main Menu